Казки на ніч / Tales of the Night / Les contes de la nuit (2011) 720p Ukr/Fre

Нові коментарі

Нова тема   Відповісти
Автор Повідомлення
AngryBirdsUA 
Свій


З нами з: 24.02.10
Востаннє: 18.08.17
Повідомлень: 3097

2015-06-19 22:56  
Казки на ніч / Tales of the Night / Les contes de la nuit (2011) 720p Ukr/Fre

Казки на ніч / Tales of the Night / Les contes de la nuit (2011) 720p Ukr/Fre


Жанр: мультфільм, фантазія
Країна: Франція



Кінокомпанія: Nord-Ouest Productions, Studio O, StudioCanal
Режисер: Мішель Осело
Ролі озвучують: Жульєн Бераміс, Маріна Ґрізе, Мішель Еліас, Олів’є Клавері, Ізабель Ґіар, Ів Барсак та інші.

Сюжет:
Мультфільм, котрий в єдиній оповіді об'єднав 6 казок народів світу з Європи, Африки та Азії.


Тривалість: 01:23:51
Якість: (Hurtom)
Відео:
кодек:
розмір кадру: 1280 х 720
бітрейт: 6000 кб/с

Аудіо # 1:
мова: українська
переклад: багатоголосий закадровий
кодек: 2.0
бітрейт: 192 кб/с

Аудіо # 2:
мова: французька
переклад: оригінал
кодек: 5.1
бітрейт: 640 кб/с

Джерело озвучення:
MefiaInfo:
General
Unique ID : 175842110919541558153816267713434782139 (0x8449F56CBC43D29490A2C020FD6A89BB)
Complete name : D:\Les contes de la nuit (2011) 720p [Ukr.Fre] [Hurtom].
Format :
Format version : Version 4 / Version 2
File size : 3.99 GiB
Duration : 1h 23mn
Overall bit rate : 6 818 Kbps
Encoded date : UTC 2015-06-19 19:47:08
Writing application : mkvmerge v7.9.0 ('Birds') 64bit
Writing library : libebml v1.3.1 + libmatroska v1.4.2
DURATION : 01:23:49.440000000
NUMBER_OF_FRAMES : 157170
NUMBER_OF_BYTES : 120706560
_STATISTICS_WRITING_APP : mkvmerge v7.9.0 ('Birds') 64bit
_STATISTICS_WRITING_DATE_UTC : 2015-06-19 19:47:08
_STATISTICS_TAGS : BPS DURATION NUMBER_OF_FRAMES NUMBER_OF_BYTES

Video
ID : 1
Format : AVC
Format/Info : Advanced Video Codec
Format profile : [email protected]
Format settings, CABAC : Yes
Format settings, ReFrames : 9 frames
Codec ID : V_MPEG4/ISO/AVC
Bit rate : 6 000 Kbps
Width : 1 280 pixels
Height : 720 pixels
Display aspect ratio : 16:9
Frame rate mode : Variable
Color space : YUV
Chroma subsampling : 4:2:0
Bit depth : 8 bits
Scan type : Progressive
Writing library : core 142 r2479 dd79a61
Encoding settings : cabac=1 / ref=9 / deblock=1:1:1 / analyse=0x1:0x131 / me=umh / subme=9 / psy=1 / psy_rd=0.40:0.00 / mixed_ref=1 / me_range=16 / chroma_me=1 / trellis=2 / 8x8dct=0 / cqm=0 / deadzone=21,11 / fast_pskip=1 / chroma_qp_offset=-2 / threads=12 / lookahead_threads=1 / sliced_threads=0 / nr=0 / decimate=1 / interlaced=0 / bluray_compat=0 / constrained_intra=0 / bframes=5 / b_pyramid=2 / b_adapt=2 / b_bias=0 / direct=3 / weightb=1 / open_gop=0 / weightp=2 / keyint=240 / keyint_min=24 / scenecut=40 / intra_refresh=0 / rc_lookahead=60 / rc=2pass / mbtree=1 / bitrate=6000 / ratetol=1.0 / qcomp=0.60 / qpmin=0 / qpmax=69 / qpstep=4 / cplxblur=20.0 / qblur=0.5 / vbv_maxrate=50000 / vbv_bufsize=62500 / nal_hrd=none / filler=0 / ip_ratio=1.40 / aq=1:0.60
Default : Yes
Forced : No
Color range : Limited
Color primaries : BT.709
Transfer characteristics : BT.709
Matrix coefficients : BT.709
DURATION : 01:23:51.043000000
NUMBER_OF_FRAMES : 120624
NUMBER_OF_BYTES : 3763085726
_STATISTICS_WRITING_APP : mkvmerge v7.9.0 ('Birds') 64bit
_STATISTICS_WRITING_DATE_UTC : 2015-06-19 19:47:08
_STATISTICS_TAGS : BPS DURATION NUMBER_OF_FRAMES NUMBER_OF_BYTES

Audio #1
ID : 2
Format : AC-3
Format/Info : Audio Coding 3
Mode extension : CM (complete main)
Format settings, Endianness : Big
Codec ID : A_AC3
Duration : 1h 23mn
Bit rate mode : Constant
Bit rate : 192 Kbps
Channel(s) : 2 channels
Channel positions : Front: L R
Sampling rate : 48.0 KHz
Compression mode : Lossy
Delay relative to video : -100ms
Stream size : 115 MiB (3%)
Language : Ukrainian
Default : No
Forced : Yes
DURATION : 01:23:51.008000000
NUMBER_OF_FRAMES : 157219
NUMBER_OF_BYTES : 402480640
_STATISTICS_WRITING_APP : mkvmerge v7.9.0 ('Birds') 64bit
_STATISTICS_WRITING_DATE_UTC : 2015-06-19 19:47:08
_STATISTICS_TAGS : BPS DURATION NUMBER_OF_FRAMES NUMBER_OF_BYTES

Audio #2
ID : 3
Format : AC-3
Format/Info : Audio Coding 3
Mode extension : CM (complete main)
Format settings, Endianness : Big
Codec ID : A_AC3
Duration : 1h 23mn
Bit rate mode : Constant
Bit rate : 640 Kbps
Channel(s) : 6 channels
Channel positions : Front: L C R, Side: L R, LFE
Sampling rate : 48.0 KHz
Compression mode : Lossy
Delay relative to video : -5ms
Stream size : 384 MiB (9%)
Language : French
Default : Yes
Forced : No


Джерело:


 Трекер:    Зареєстрований   

Завантажити / скачати мультфільм українською



відео для новачків



 Зареєстрований:   2015-06-19 22:56
 Розмір:   3.99 GB 
 Оцінка мультфільму:   4.6/10 (Голосів: 10)
   
Інші релізи
AngryBirdsUA 
Свій


З нами з: 24.02.10
Востаннє: 18.08.17
Повідомлень: 3097

2015-06-19 22:57  
avi пізніше
Ваш часовий пояс: GMT + 2 Години

Нова тема   Відповісти