Вовчі діти Аме та Юкі / おおかみこどもの雨と雪 (Ookami kodomo no Ame to Yuki) / Wolf Children (2012)

Нові коментарі

Нова тема   Відповісти
Автор Повідомлення
Anonymous 







2015-06-18 23:57  
Вовчі діти Аме та Юкі / おおかみこどもの雨と雪 (Ookami kodomo no Ame to Yuki) / Wolf Children (2012)


Жанр: драма
Країна: Японія



9.02 (1855 голосів)

Кінокомпанія: Studio Chizu
Режисер: Мамору Хосода
Ролі озвучують: Аой Міядзакі, Хару Курокі, Юкіто Нішіі, Меґумі Хаяшібара, Такума Хіраока

Патлата подяка головному меценату релізу - Sensetivity.

Сюжет:
Студентка Хана закохується в іншого студента, який виявляється вовком-перевертнем. Після нещасного випадку вона переїжджає в сільську місцевість, щоб самотужки виховати своїх вовчих дітей. Саме там Аме та Юкі доведеться обирати свій шлях між людською природою та вовчою...


Тривалість: 01:57:04
Якість:
Відео:
кодек:
розмір кадру: 720 х 400
бітрейт: ~1800 кб/с

Аудіо:
мова: українська
переклад: багатоголосий закадровий
кодек: 5.1
бітрейт: 448 кб/с

Субтитри: Sensetivity & The_P6 (написи)
мова: українська
тип: гардсаб
формат: *.ass

Джерело озвучення:


Ролі озвучили: Nata, Oni, Ito, Elvira, Zirko
Переклад: Sensetivity & The_P6
Редактор: Dontsov
Укладення тексту: Oni
Info
General
Complete name : E:\RIP\Wolf.Children.2012.720p.BluRay.[Patlati_Productions].avi
Format : AVI
Format/Info : Audio Video Interleave
File size : 1.83 GiB
Duration : 1h 57mn
Overall bit rate : 2 244 Kbps
Writing application : VirtualDubMod 1.5.10.3 | www.virtualdub-fr.org || (build 2550/release)
Writing library : VirtualDubMod build 2550/release

Video
ID : 0
Format : MPEG-4 Visual
Format profile : Advanced [email protected]
Format settings, BVOP : 2
Format settings, QPel : No
Format settings, GMC : No warppoints
Format settings, Matrix : Custom
Codec ID :
Codec ID/Hint :
Duration : 1h 57mn
Bit rate : 1 786 Kbps
Width : 720 pixels
Height : 400 pixels
Display aspect ratio : 16:9
Frame rate : 23.976 fps
Color space : YUV
Chroma subsampling : 4:2:0
Bit depth : 8 bits
Scan type : Progressive
Compression mode : Lossy
Bits/(Pixel*Frame) : 0.259
Stream size : 1.46 GiB (80%)
Writing library : 1.2.1 (UTC 2008-12-04)

Audio
ID : 1
Format : AC-3
Format/Info : Audio Coding 3
Mode extension : CM (complete main)
Format settings, Endianness : Big
Codec ID : 2000
Duration : 1h 57mn
Bit rate mode : Constant
Bit rate : 448 Kbps
Channel count : 6 channels
Channel positions : Front: L C R, Side: L R, LFE
Sampling rate : 48.0 KHz
Bit depth : 16 bits
Compression mode : Lossy
Stream size : 375 MiB (20%)
Alignment : Split accross interleaves
Interleave, duration : 42 ms (1.00 video frame)
Interleave, preload duration : 500 ms
Скріншоти









Особиста оцінка: 9 - давно не бачив настільки якісне кіно


Авторський реліз (завантажувати можна без реєстрації)
 Трекер:    Зареєстрований   

Завантажити / скачати аніме українською



відео для новачків



 Зареєстрований:   2015-06-20 10:56
 Розмір:   1.83 GB 
 Оцінка аніме:   8.7/10 (Голосів: 11)
   
Час_настал 
VIP


З нами з: 01.07.10
Востаннє: 15.08.17
Повідомлень: 297

2015-06-19 15:27  
Чекаю Happy
bot 
робот


З нами з: 30.09.07
Востаннє: 26.05.05
Повідомлень: 17366

2015-06-20 10:55  
Тему перенесено з Анонси релізів до форуму Аніме


NeetScrool

EvGaS 
Відео Гуртом - підтримка та поширення
Відео Гуртом - підтримка та поширення


З нами з: 27.02.12
Востаннє: 18.08.17
Повідомлень: 3332

2015-06-22 07:00  
Наче й дитяча повчальна казка, та кількість трагедій тут зашкалює.

Стрічка не для всіх, хоча й матиме своїх прихильників. Мені було нудно на початку, пересилив щоб додивитись - мабуть, таке кіно не для мене, замало подій чи що...

Є деякі питання що до логіки - наприклад, вовки не гавкають чи щодо деяких дій персонажів.

Згадався інший тематичний мультфільм, хоча то дитячий й інший:
https://toloka.to/t19407

Anonymous 







2015-06-22 21:39  
А чого не авторський?
Я ж аматор.

haibane_tenshi 
Новенький


З нами з: 16.07.11
Востаннє: 14.05.17
Повідомлень: 10

2015-07-03 22:33  
Сюжет невибагливий, зав’язка простенька, але
я не можу одразу пригадати якийсь ще фільм чи аніме, у якому б з такою любов’ю, так дбайливо деталями та нюансами вимальовувався вражаюче яскравий образ Матері та однієї з, мабуть, найважчих речей у материнстві - прийняття життєвого шляху, який обирають діти. Звісно, оцінка суб’єктивна, звісно, комусь ця історія не сподобається, хтось причепиться до другорядних дрібниць, хтось розкритикує загальну простоту сюжетної лінії. Але особисто у мене "вовчі діти" знайшли бурхливий емоційний відгук (почасти, можливо, тому що я трохи хильнув сьогодні Vampire-like teeth) і
я отримав колосальне задоволення від перегляду. 10/10.

Ваш часовий пояс: GMT + 2 Години

Нова тема   Відповісти