Вовчі діти Аме та Юкі/ おおかみこどもの雨と雪 (Ookami kodomo no Ame to Yuki) / Wolf Children (2012) 720p Ukr/Jap + Ukr Sub

Нові коментарі

Нова тема   Відповісти
Автор Повідомлення
Patlati Продакшнз 
Частий відвідувач


З нами з: 09.01.12
Востаннє: 16.03.17
Повідомлень: 35

2015-06-18 01:32  
Вовчі діти Аме та Юкі/ おおかみこどもの雨と雪 (Ookami kodomo no Ame to Yuki) / Wolf Children (2012) 720p Ukr/Jap + Ukr Sub

Вовчі діти Аме та Юкі/ おおかみこどもの雨と雪 (Ookami kodomo no Ame to Yuki) / Wolf Children (2012) 720p Ukr/Jap + Ukr Sub


Жанр: драма
Країна: Японія



9.02 (1855 голосів)

Кінокомпанія: Studio Chizu
Режисер: Мамору Хосода
Ролі озвучують: Аой Міядзакі, Хару Курокі, Юкіто Нішіі, Меґумі Хаяшібара, Такума Хіраока

Патлата подяка головному меценату релізу - Sensetivity.

Сюжет:
Студентка Хана закохується в іншого студента, який виявляється вовком-перевертнем. Після нещасного випадку, вона переїжджає в сільську місцевість, щоб самотужки виховати своїх вовчих дітей. Саме там Аме та Юкі доведеться обирати свій шлях між людською природою та вовчою...


Тривалість: 01:57:04
Якість:
Відео:
кодек:
розмір кадру: 1280 х 720
бітрейт: 4259 кб/с

Аудіо # 1:
мова: українська
переклад: багатоголосий закадровий
кодек: 2.0
бітрейт: 1509 кб/с

Аудіо # 2:
мова: японська
переклад: оригінал
кодек: 2.0
бітрейт: 640кб/с

Джерело озвучення:


Ролі озвучили: Nata, Oni, Ito, Elvira, Zirko
Переклад: Sensetivity
Редактор: Dontsov
Укладення тексту: Oni

Субтитри: Sensetivity & The_P6
мова: українська
тип: пререндерні
формат: *.ass

Субтитри: Gedet
мова: українська
тип: пререндерні
формат: *.ass
Info
General
Unique ID : 240772372018009664871707924412506870105 (0xB52312757A36B1D69B4EFE288C889159)
Complete name : D:\VIDEO\Vovchi dity\Wolf.Children.2012.720p.BluRay.DD5.1.-TayTO [PP] (1).
Format :
Format version : Version 4 / Version 2
File size : 5.35 GiB
Duration : 1h 57mn
Overall bit rate : 6 538 Kbps
Encoded date : UTC 2015-06-17 19:41:03
Writing application : mkvmerge v7.3.0 ('Nouages') 64bit built on Oct 22 2014 18:53:34
Writing library : libebml v1.3.0 + libmatroska v1.4.1
DURATION : 01:56:03.520000000
NUMBER_OF_FRAMES : 1338
NUMBER_OF_BYTES : 88303
_STATISTICS_WRITING_APP : mkvmerge v7.3.0 ('Nouages') 64bit built on Oct 22 2014 18:53:34
_STATISTICS_WRITING_DATE_UTC : 2015-06-17 19:41:03
_STATISTICS_TAGS : BPS DURATION NUMBER_OF_FRAMES NUMBER_OF_BYTES
Video #1
ID : 1
Format : AVC
Format/Info : Advanced Video Codec
Format profile : [email protected]
Format settings, CABAC : Yes
Format settings, ReFrames : 9 frames
Codec ID : V_MPEG4/ISO/AVC
Duration : 1h 57mn
Bit rate : 4 259 Kbps
Width : 1 280 pixels
Height : 720 pixels
Display aspect ratio : 16:9
Frame rate mode : Constant
Frame rate : 23.976 fps
Color space : YUV
Chroma subsampling : 4:2:0
Bit depth : 8 bits
Scan type : Progressive
Bits/(Pixel*Frame) : 0.193
Stream size : 3.48 GiB (65%)
Title : Okami kodomo no ame to yuki 2012
Writing library : core 129 r2245 bc13772
Encoding settings : cabac=1 / ref=9 / deblock=1:-3:-3 / analyse=0x3:0x133 / me=umh / subme=10 / psy=1 / psy_rd=0.90:0.00 / mixed_ref=1 / me_range=24 / chroma_me=1 / trellis=2 / 8x8dct=1 / cqm=0 / deadzone=21,11 / fast_pskip=0 / chroma_qp_offset=-2 / threads=12 / lookahead_threads=2 / sliced_threads=0 / nr=0 / decimate=1 / interlaced=0 / bluray_compat=0 / constrained_intra=0 / bframes=9 / b_pyramid=2 / b_adapt=2 / b_bias=0 / direct=3 / weightb=1 / open_gop=0 / weightp=2 / keyint=250 / keyint_min=23 / scenecut=40 / intra_refresh=0 / rc=crf / mbtree=0 / crf=15.0 / qcomp=0.60 / qpmin=0 / qpmax=69 / qpstep=4 / ip_ratio=1.40 / pb_ratio=1.30 / aq=1:1.05
Language : Japanese
Default : No
Forced : No
DURATION : 01:57:03.016000000
NUMBER_OF_FRAMES : 168384
NUMBER_OF_BYTES : 3842907233
_STATISTICS_WRITING_APP : mkvmerge v7.3.0 ('Nouages') 64bit built on Oct 22 2014 18:53:34
_STATISTICS_WRITING_DATE_UTC : 2015-06-17 19:41:03
_STATISTICS_TAGS : BPS DURATION NUMBER_OF_FRAMES NUMBER_OF_BYTES
Audio #2
ID : 2
Format :
Format/Info : Digital Theater Systems
Mode : 16
Format settings, Endianness : Big
Codec ID : A_DTS
Duration : 1h 57mn
Bit rate mode : Constant
Bit rate : 1 509 Kbps
Channel count : 6 channels
Channel positions : Front: L C R, Side: L R, LFE
Sampling rate : 48.0 KHz
Bit depth : 24 bits
Compression mode : Lossy
Stream size : 1.23 GiB (23%)
Language : Ukrainian
Default : Yes
Forced : No
Audio #3
ID : 3
Format : AC-3
Format/Info : Audio Coding 3
Mode extension : CM (complete main)
Format settings, Endianness : Big
Codec ID : A_AC3
Duration : 1h 57mn
Bit rate mode : Constant
Bit rate : 640 Kbps
Channel count : 6 channels
Channel positions : Front: L C R, Side: L R, LFE
Sampling rate : 48.0 KHz
Bit depth : 16 bits
Compression mode : Lossy
Delay relative to video : 500ms
Stream size : 536 MiB (10%)
Language : Japanese
Default : No
Forced : No
Text #4
ID : 4
Format : PGS
Muxing mode : zlib
Codec ID : S_HDMV/PGS
Codec ID/Info : The same subtitle format used on BDs/HD-DVDs
Language : English
Default : No
Forced : No
Text #5
ID : 5
Format : ASS
Codec ID : S_TEXT/ASS
Codec ID/Info : Advanced Sub Station Alpha
Compression mode : Lossless
Title : Âîâ÷³ ä³òè_Sensetivity & The_P6.2012.720p.BluRay.DD5.1.-TayTO [PP]
Language : Ukrainian
Default : Yes
Forced : No
Text #6
ID : 6
Format : ASS
Codec ID : S_TEXT/ASS
Codec ID/Info : Advanced Sub Station Alpha
Compression mode : Lossless
Title : Ookami Kodomo no Ame to Yuki_Gedet[BD 720p ]
Language : Ukrainian
Default : No
Forced : No
Скріншоти








Джерело:
Особиста оцінка: 9 - давно не бачив настільки якісне кіно


Авторський реліз (завантажувати можна без реєстрації)
 Трекер:    Зареєстрований   

Завантажити / скачати аніме українською



відео для новачків



 Зареєстрований:   2015-06-18 01:32
 Розмір:   5.35 GB 
 Оцінка аніме:   9.8/10 (Голосів: 5)
   
Час_настал 
VIP


З нами з: 01.07.10
Востаннє: 19.08.17
Повідомлень: 297

2015-06-18 13:50  
А ви не плануєте зробити роздачу дещо меншого розміру? Скажімо на 1,5-2 Гіга.
NeetScrool 
Відео Гуртом - фільмокрай
Відео Гуртом - фільмокрай


З нами з: 10.01.13
Востаннє: 21.08.17
Повідомлень: 2613

2015-06-18 20:29  
Час_настал
Я зроблю.

DaemonRus 
Новенький


З нами з: 22.02.13
Востаннє: 20.08.17
Повідомлень: 3

2015-12-01 22:23  
Люди, роздайте будь-ласкаАА!!
Ваш часовий пояс: GMT + 2 Години

Нова тема   Відповісти