На Відміну Від - Врубайся! The Mixtape (2009) [] | Hip-Hop

Нові коментарі

Нова тема   Відповісти
Автор Повідомлення
Doomdrake 
Свій


З нами з: 19.05.08
Востаннє: 24.07.19
Повідомлень: 73

2009-07-29 15:02  
На Відміну Від - Врубайся! The Mixtape (2009) [] | Hip-Hop




Стиль: Hip-Hop
Країна, місто: Україна, Черкаси
Сайти: Офіційний Сайт,

Пісні:
1. Врубайся!
2. Вгашений
3. До Зустрічі
4. Я - Аренбі!
5. Всім, Хто
6. Сяй!
7. Якби Ви Знали...
8. Може Це Ти
9. Мій Хіп-Хоп
10. Шо Вам!?
11. Не Вирубай!

Тривалість: 00:33:52
Мова: українська
Аудіо-кодек:
Бітрейт: ~932 кб/с
Джерело: Власний ріп
Додаткова інформація:
На Відміну Від не залишають байдужими нікого – їх або люб****, або ненавидять, нейтрально ставитися до такої музики, в принципі, неможливо. Їхні пісні Ви поки що не почуєте на радіо (та, як запевняють самі "На Відміну Від", дуже скоро цю ситуацію буде виправлено), але Ви запросто можете почути їх на рінгтонах в маршрутках і метро, в айподах Ваших дітей та з вікон вишневих дев’яток в районі черкаського вокзалу.
Мікстейп "Врубайся" – це всього лише 11 треків, але "середніх" композицій, написаних для кількості, Ви там не знайдете. Натиснувши на play, Ви почуєте, певно, найрізноманітніший матеріал серед всіх тих, які потрапляли у Ваші вуха.
Мікстейп "Врубайся" – це те, чого раніше не вистачало Вам для повноцінного, щасливого життя, те, що переверне Ваше уявлення про музику.
Врубайтесь!
Ріп зроблений із оригінального диска за допомогою програми Exact Audio Copy 0.99 prebeta 4 із правильними налаштуваннями (це для досягнення найбільш можливої точної копії диска). Для стиснення використовувався Free Lossless Audio Codec версії 1.2.1b. із налаштуванням для максимально можливого ступеню стиснення.
Звіт EAC

Exact Audio Copy V0.99 prebeta 4 from 23. January 2008

EAC extraction logfile from 18. July 2009, 2:14

На Відміну Від / Врубайся! The Mixtape

Used drive : HL-DT-STDVD-RAM GSA-H55L Adapter: 0 ID: 1

Read mode : Secure
Utilize accurate stream : Yes
Defeat audio cache : Yes
Make use of C2 pointers : No

Read offset correction : 102
Overread into Lead-In and Lead-Out : No
Fill up missing offset samples with silence : Yes
Delete leading and trailing silent blocks : No
Null samples used in CRC calculations : Yes
Used interface : Native Win32 interface for Win NT & 2000

Used output format : User Defined Encoder
Selected bitrate : 1024 kBit/s
Quality : High
Add ID3 tag : No
Command line compressor : C:\Program Files\\.exe
Additional command line options : -8 -V -T "ARTIST=%a" -T "TITLE=%t" -T "ALBUM=%g" -T "DATE=%y" -T "TRACKNUMBER=%n" -T "GENRE=%m" -T "COMMENT=EAC -8" %s

TOC of the extracted CD

Track | Start | Length | Start sector | End sector
---------------------------------------------------------
1 | 0:00.00 | 1:46.59 | 0 | 8008
2 | 1:46.59 | 3:31.34 | 8009 | 23867
3 | 5:18.18 | 2:29.51 | 23868 | 35093
4 | 7:47.69 | 3:09.74 | 35094 | 49342
5 | 10:57.68 | 3:26.19 | 49343 | 64811
6 | 14:24.12 | 2:41.05 | 64812 | 76891
7 | 17:05.17 | 3:14.38 | 76892 | 91479
8 | 20:19.55 | 3:11.33 | 91480 | 105837
9 | 23:31.13 | 3:17.56 | 105838 | 120668
10 | 26:48.69 | 3:47.37 | 120669 | 137730
11 | 30:36.31 | 3:16.23 | 137731 | 152453

Range status and errors

Selected range

Filename C:\Output\Na Vidminy Vid - Vrubajsya! The Mixtape (2009) [EAC-]\На Відміну Від - Врубайся! The Mixtape.wav

Peak level 100.0 %
Range quality 99.9 %
Copy CRC 51BDE46F
Copy OK

No errors occurred

End of status report


Срібний реліз (на рейтинг впливає 50% завантаженого)
 Трекер:    Зареєстрований   

Завантажити / скачати українську музику



відео для новачків



 Зареєстрований:   2009-07-29 15:02
 Розмір:   226 MB 
 Оцінка музики:   8.8/10 (Голосів: 19)
   
Skiff 
музика
музика


З нами з: 12.11.07
Востаннє: 23.07.19
Повідомлень: 3064

2009-07-29 22:37  
В полі джерело пишемо дуже лаконічно. Наприклад: Власний ріп. Happy
Інформація, що є там зараз, доречніше вигладала б у ]Додатковій інформації[/b]
Doomdrake написано:
"]Київ/Черкаси

Наскільки мені відомо, команда черкаська. До чого тут Київ?

6c6c6 
Поважний учасник


З нами з: 30.09.07
Востаннє: 30.09.09
Повідомлень: 3671

2009-07-29 22:50  
Doomdrake написано:
EAC-

То точно не кодек і в назві релізу того зазначати не слід, мо ще писати яким сканером сканувались обкладинки?

Doomdrake 
Свій


З нами з: 19.05.08
Востаннє: 24.07.19
Повідомлень: 73

2009-07-29 23:39  
6c6c6 [EAC-] - це означає що це не просто криво стягнений ріп у wave.... через будь-який плеєр... а повністю ідентичний образ і позначення [EAC-], наприклад на західно європейських трекерах говорить саме за себе....
6c6c6 
Поважний учасник


З нами з: 30.09.07
Востаннє: 30.09.09
Повідомлень: 3671

2009-07-30 00:40  
Doomdrake, ця інформація має бути в описі релізу а не в назві. Тим паче EAC – лиш назва програми і те яким можна там ріп зробити то вже інша справа.

П.С. Я не намагаюсь сказати що EAC – погана софтина для грабу музики без втрати якості, ба навіть навпаки, але прошу прибрати це слово з назви релізу.

tupak 
Поважний учасник


З нами з: 04.08.09
Востаннє: 16.07.19
Повідомлень: 222

2009-12-15 01:57  
6c6c6 написано:
Наскільки мені відомо, команда черкаська. До чого тут Київ?

Родом вони з Черкас, але живуть у Києві.

Gratix02 
Свій


З нами з: 08.01.12
Востаннє: 14.07.19
Повідомлень: 91

2013-11-05 17:49  
Чіткі пацики. Мені це довподоби, незважаючи на лайку.
mr.killer 
Поважний учасник


З нами з: 11.08.10
Востаннє: 24.07.19
Повідомлень: 231

2015-03-13 09:54  
дуже жаль що диск відносно низької якості записаний із MP3
Ваш часовий пояс: GMT + 2 Години

Нова тема   Відповісти