Бумбокс | Дискографія [5 альбомів + 1 EP] (2005-2010) [] | Reggae / Funk / Hip-hop

Нові коментарі

Нова тема   Відповісти
Автор Повідомлення
plyrvt 
VIP


З нами з: 04.12.08
Востаннє: 22.07.19
Повідомлень: 400

2009-07-29 13:58  
Бумбокс | Дискографія [5 альбомів + 1 EP] (2005-2010) [] | Reggae / Funk / Hip-hop



Стиль: Funk Hip-Hop
Країна, місто: Україна, Київ
Сайти: Офіційний сайт
Видавець: Music Factory Group (1), Moon records (2, 3, 5), "Издательство Монолит" (4)
Виконавці:
Андрій Хливнюк — вокал, тексти
Андрій Самойло — гітара
Валік Матіюк — DJ
діджей Tonique Le DeeJay
Альбоми:
2005 - Меломанія


01 - Бета–Каротин - 3:21
02 - День - 4:41
03 - Діагноз - 3:33
04 - E-mail - 3:34
05 - Гайки з Ямайки - 4:16
06 - Почути - 4:38
07 - Рожеві сиропи - 3:16
08 - Супер–пупер - 2:56
09 - Одна - 4:32
10 - Бобік - 3:22
11 - Зима - 4:26

Тривалість: 00:42:36
Мова: українська
Data CD

Bumboks - Super-puper.mpg
Тривалість: 00:03:04
Якість:
кодек: MPEG1
розмір кадру: 640x480 25.00fps
бітрейт: 4000 кбіт/с

Аудіо:
мова: українська
кодек: MPEG1 Audio 44100Hz stereo
бітрейт: 256 кбіт/сек
Скріншоти:


EAC Log
EAC extraction logfile from 5. September 2005, 10:55 for CD
Бумбокс / Меломанія

Used drive : PLEXTOR DVDR PX-708A Adapter: 1 ID: 0
Read mode : Secure with NO C2, accurate stream, disable cache
Combined read/write offset correction : 0
Overread into Lead-In and Lead-Out : No

Used output format : Internal WAV Routines
44.100 Hz; 16 Bit; Stereo

Other options :
Fill up missing offset samples with silence : Yes
Delete leading and trailing silent blocks : No
Installed external ASPI interface

Range status and errors
Selected range
Filename E:\Bumboks\2005. Melomaniya\Bumboks - Melomaniya.wav

Peak level 97.7 %
Range quality 100.0 %
CRC 36749415
Copy OK

No errors occured

End of status report
Audiochecker Log
AUDIOCHECKER v2.0 beta (build 457) - by Dester - [email protected]
~~~~~~~~~~~~~~~~~~~~~~~~~~~~~~~~~~
-=== DO NOT EDIT THIS FILE! ===-

Path: ...\2005 - Меломанія

01 -=- 01 - Бета–Каротин.wav -=- CDDA (100%)
02 -=- 02 - День.wav -=- CDDA (100%)
03 -=- 03 - Діагноз.wav -=- CDDA (100%)
04 -=- 04 - E-mail.wav -=- CDDA (100%)
05 -=- 05 - Гайки з Ямайки.wav -=- CDDA (100%)
06 -=- 06 - Почути.wav -=- CDDA (100%)
07 -=- 07 - Рожеві сиропи.wav -=- CDDA (100%)
08 -=- 08 - Супер–пупер.wav -=- CDDA (100%)
09 -=- 09 - Одна.wav -=- CDDA (100%)
10 -=- 10 - Бобік.wav -=- CDDA (100%)
11 -=- 11 - Зима.wav -=- CDDA (100%)

Summary 100,00% CDDA

17217364
2006 - Family бізнес


01 - Ким ми були - 3:39
02 - Королева - 3:23
03 - Hip-Hop - 3:49
04 - Вахтёрам - 4:01
05 - Зцапала злапала - 3:23
06 - Квіти в волоссі - 3:59
07 - Віддаю - 3:07
08 - Хоттабич - 4:36
09 - Нездара - 4:23
10 - Хвилюватися немає причин - 4:42
11 - Happy end - 3:19

Тривалість: 00:42:20
Мова: українська(1,3,4,6,7,9-11), російська(2,4,8)
EAC Log
EAC extraction logfile from 8. February 2007, 21:47 for CD
Бумбокс / Family бізнес

Used drive : _NEC DVD_RW ND-3540A Adapter: 3 ID: 0
Read mode : Secure with NO C2, accurate stream, NO disable cache
Combined read/write offset correction : 0
Overread into Lead-In and Lead-Out : No

Used output format : Internal WAV Routines
44.100 Hz; 16 Bit; Stereo

Other options :
Fill up missing offset samples with silence : Yes
Delete leading and trailing silent blocks : No
Native Win32 interface for Win NT & 2000

Range status and errors
Selected range
Filename C:\torr\Бумбокс - Family бізнес.wav

Peak level 98.8 %
Range quality 100.0 %
CRC 582C3E8A
Copy OK

No errors occured

End of status report
Audiochecker Log
AUDIOCHECKER v2.0 beta (build 457) - by Dester - [email protected]
~~~~~~~~~~~~~~~~~~~~~~~~~~~~~~~~~~
-=== DO NOT EDIT THIS FILE! ===-

Path: ...\2006 - Family Бізнес

01 -=- 01 - Ким ми були.wav -=- CDDA (100%)
02 -=- 02 - Королева.wav -=- CDDA (100%)
03 -=- 03 - Hip-Hop.wav -=- CDDA (99%)
04 -=- 04 - Вахтёрам.wav -=- CDDA (100%)
05 -=- 05 - Зцапала злапала.wav -=- CDDA (100%)
06 -=- 06 - Квіти в волоссі.wav -=- CDDA (100%)
07 -=- 07 - Віддаю.wav -=- CDDA (100%)
08 -=- 08 - Хоттабич.wav -=- CDDA (100%)
09 -=- 09 - Нездара.wav -=- CDDA (100%)
10 -=- 10 - Хвилюватися немає причин.wav -=- CDDA (100%)
11 -=- 11 - Happy end.wav -=- CDDA (99%)

Summary 99,82% CDDA

48384404
2007 - Тримай


01 - Тримай - 3:52
02 - Та4то - 3:29
03 - Тримай (версія 'боса') - 4:52
04 - Та4то (версія 'За туманом') - 4:49
05 - Та4то (версія DJ Tapolsky & Redco) - 3:34
06 - Та4то (версія Tonique Le DeeJay) - 3:18
07 - Тримай (-) (el menos) - 3:47
08 - Та4то (-) (el menos) - 3:24

Тривалість: 00:31:06
Мова: українська (тримай), російська (Та4то)
EAC Log
Exact Audio Copy V0.99 prebeta 4 from 23. January 2008

EAC extraction logfile from 13. August 2008, 21:48

Бумбокс / Тримай

Used drive : PIONEER DVD-RW DVR-K06A Adapter: 0 ID: 0

Read mode : Secure
Utilize accurate stream : Yes
Defeat audio cache : Yes
Make use of C2 pointers : No

Read offset correction : 48
Overread into Lead-In and Lead-Out : No
Fill up missing offset samples with silence : Yes
Delete leading and trailing silent blocks : No
Null samples used in CRC calculations : Yes
Used interface : Native Win32 interface for Win NT & 2000

Used output format : Internal WAV Routines
Sample format : 44.100 Hz; 16 Bit; Stereo

TOC of the extracted CD

Track | Start | Length | Start sector | End sector
---------------------------------------------------------
1 | 0:00.00 | 3:51.51 | 0 | 17375
2 | 3:51.51 | 3:29.15 | 17376 | 33065
3 | 7:20.66 | 4:52.03 | 33066 | 54968
4 | 12:12.69 | 4:48.66 | 54969 | 76634
5 | 17:01.60 | 3:34.34 | 76635 | 92718
6 | 20:36.19 | 3:18.11 | 92719 | 107579
7 | 23:54.30 | 3:47.16 | 107580 | 124620
8 | 27:41.46 | 3:24.37 | 124621 | 139957

Range status and errors

Selected range

Filename C:\Documents and Settings\Administrator\My Documents\Бумбокс - Тримай.wav

Peak level 100.0 %
Range quality 100.0 %
Copy CRC B94EECC8
Copy OK

No errors occurred

End of status report
Audiochecker Log
AUDIOCHECKER v2.0 beta (build 457) - by Dester - [email protected]
~~~~~~~~~~~~~~~~~~~~~~~~~~~~~~~~~~
-=== DO NOT EDIT THIS FILE! ===-

Path: ...\2007 - Тримай [EP]

01 -=- 01 - Тримай.wav -=- MPEG (95%)
02 -=- 02 - Та4то.wav -=- CDDA (100%)
03 -=- 03 - Тримай (версія 'боса').wav -=- MPEG (95%)
04 -=- 04 - Та4то (версія 'За туманом').wav -=- CDDA (100%)
05 -=- 05 - Та4то (версія DJ Tapolsky & Redco).wav -=- MPEG (95%)
06 -=- 06 - Та4то (версія Tonique Le DeeJay).wav -=- CDDA (100%)
07 -=- 07 - Тримай (-) (el menos).wav -=- CDDA (100%)
08 -=- 08 - Та4то (-) (el menos).wav -=- CDDA (100%)

Summary 64,38% CDDA

189396836
2008 - III


01 - Концерти - 4:11
02 - Стяги на стяги - 3:17
03 - Полiна - 4:22
04 - Наодинцi - 4:19
05 - Cash - бабулес - 4:28
06 - Тримай - 3:49
07 - та4то - 3:27
08 - TNT - 3:45
09 - Быть самим собой - 3:51
10 - Що ти змiг - 4:15
11 - Eva - 3:35
12 - Тримай (версия 'босса') - 4:51
13 - та4что (диджей Tapolsky & Redco) - 3:32
14 - та4то (диджей Tonique Le DeeJay) - 3:16
15 - Наодинцi (диджей Tapolsky & Redco) - 4:09

Тривалість: 00:59:09
Мова: українська(1-6,10), російська(7-9), англійська(11)
Data CD
та4то.mpg
Тривалість: 00:03:04
Якість:
кодек: MPEG1
розмір кадру: 720x576 (131:96) 25.00fps
бітрейт: 2264 кбіт/с

Аудіо:
мова: українська
кодек: MPEG1 Audio 48000Hz stereo
бітрейт: 224 кбіт/сек
Скріншоти:


EAC Log
Exact Audio Copy V0.99 prebeta 4 from 23. January 2008

Отчёт EAC об извлечении, выполненном 1. ноября 2008, 15:57

Бумбокс / III

Дисковод: LITE-ON DVDRW LH-20A1S Adapter: 2 ID: 0

Режим чтения : Достоверность
Использование точного потока : Да
Отключение кэша аудио : Да
Использование указателей C2 : Нет

Коррекция смещения при чтении : 6
Способность читать области Lead-in и Lead-out : Нет
Заполнение пропущенных сэмплов тишиной : Да
Удаление блоков с тишиной в начале и конце : Нет
При вычислениях CRC использовались нулевые сэмплы : Да
Интерфейс : Установленный внешний ASPI-интерфейс

Выходной формат : Внутренние WAV-операции
Формат сэмплов : 44.100 Гц; 16 бит; стерео

TOC извлечённого CD

Трек | Старт | Длительность | Начальный сектор | Конечный сектор
---------------------------------------------------------------------
1 | 0:00.00 | 4:10.49 | 0 | 18798
2 | 4:10.49 | 3:17.11 | 18799 | 33584
3 | 7:27.60 | 4:22.24 | 33585 | 53258
4 | 11:50.09 | 4:19.25 | 53259 | 72708
5 | 16:09.34 | 4:28.11 | 72709 | 92819
6 | 20:37.45 | 3:49.32 | 92820 | 110026
7 | 24:27.02 | 3:27.04 | 110027 | 125555
8 | 27:54.06 | 3:45.09 | 125556 | 142439
9 | 31:39.15 | 3:50.62 | 142440 | 159751
10 | 35:30.02 | 4:14.74 | 159752 | 178875
11 | 39:45.01 | 3:34.55 | 178876 | 194980
12 | 43:19.56 | 4:51.03 | 194981 | 216808
13 | 48:10.59 | 3:32.17 | 216809 | 232725
14 | 51:43.01 | 3:16.20 | 232726 | 247445
15 | 54:59.21 | 4:09.25 | 247446 | 266145
16 | 61:40.46 | 7:27.64 | 277546 | 311134

Характеристики диапазона извлечения и сообщения об ошибках

Выбранный диапазон

Имя файла D:\Музыка\Lossless\Бумбокс - III\Бумбокс - III.wav

Пиковый уровень 100.0 %
Качество диапазона 100.0 %
CRC копии 5601CAD6
Копирование... OK

Ошибок не произошло

Конец отчёта
Audiochecker Log
AUDIOCHECKER v2.0 beta (build 457) - by Dester - [email protected]
~~~~~~~~~~~~~~~~~~~~~~~~~~~~~~~~~~
-=== DO NOT EDIT THIS FILE! ===-

Path: ...\2008 - III

01 -=- 01 - Концерти.wav -=- CDDA (100%)
02 -=- 02 - Стяги на стяги.wav -=- CDDA (99%)
03 -=- 03 - Полiна.wav -=- CDDA (100%)
04 -=- 04 - Наодинцi.wav -=- CDDA (100%)
05 -=- 05 - Cash - бабулес.wav -=- CDDA (100%)
06 -=- 06 - Тримай.wav -=- CDDA (100%)
07 -=- 07 - та4то.wav -=- CDDA (100%)
08 -=- 08 - TNT.wav -=- CDDA (100%)
09 -=- 09 - Быть самим собой.wav -=- CDDA (100%)
10 -=- 10 - Що ти змiг.wav -=- CDDA (100%)
11 -=- 11 - Eva.wav -=- CDDA (99%)
12 -=- 12 - Тримай (версия 'босса').wav -=- MPEG (95%)
13 -=- 13 - та4что (диджей Tapolsky & Redco).wav -=- MPEG (95%)
14 -=- 14 - та4то (диджей Tonique Le DeeJay).wav -=- CDDA (100%)
15 -=- 15 - Наодинцi (диджей Tapolsky & Redco).wav -=- CDDA (100%)

Summary 87,20% CDDA

67828244
2009 - Бленди, Мікси Та Інші Музичні Пародії


01 - Що Ти Зміг - 4:44
02 - Концерти - 3:06
03 - Одна - 5:02
04 - Стяги На Стяги - 3:38
05 - Быть Самим Собой - 3:33
06 - Хоттабыч - 3:49
07 - Наодинці - 3:49
08 - Королева - 3:26
09 - Поліна - 3:39
10 - Вахтёрам - 3:52
11 - Ta4To - 3:15
12 - Come Around (Bonus) - 3:27

Тривалість: 00:45:20
Видавець: Moon records
Мова: українська(1-4,7-9), російська(5-6, 10-11), англійська(12)
EAC Log
Exact Audio Copy V0.99 prebeta 5 from 4. May 2009

EAC extraction logfile from 14. March 2010, 22:47

BOOMBOX i TONIQUE LE DEEJAY / Blendy, miksi ta inshi muzychni parodii

Used drive : _NEC DVD_RW ND-2510A Adapter: 1 ID: 0

Read mode : Secure
Utilize accurate stream : Yes
Defeat audio cache : Yes
Make use of C2 pointers : No

Read offset correction : 48
Overread into Lead-In and Lead-Out : No
Fill up missing offset samples with silence : Yes
Delete leading and trailing silent blocks : No
Null samples used in CRC calculations : Yes
Used interface : Native Win32 interface for Win NT & 2000

Used output format : Internal WAV Routines
Sample format : 44.100 Hz; 16 Bit; Stereo

TOC of the extracted CD

Track | Start | Length | Start sector | End sector
---------------------------------------------------------
1 | 0:00.00 | 4:43.44 | 0 | 21268
2 | 4:43.44 | 3:06.30 | 21269 | 35248
3 | 7:49.74 | 5:01.65 | 35249 | 57888
4 | 12:51.64 | 3:38.19 | 57889 | 74257
5 | 16:30.08 | 3:32.70 | 74258 | 90227
6 | 20:03.03 | 3:49.07 | 90228 | 107409
7 | 23:52.10 | 3:49.22 | 107410 | 124606
8 | 27:41.32 | 3:26.14 | 124607 | 140070
9 | 31:07.46 | 3:39.09 | 140071 | 156504
10 | 34:46.55 | 3:51.52 | 156505 | 173881
11 | 38:38.32 | 3:14.59 | 173882 | 188490
12 | 41:53.16 | 3:26.74 | 188491 | 204014

Range status and errors

Selected range

Filename C:\BOOMBOX i TONIQUE LE DEEJAY - Blendy, miksi ta inshi muzychni parodii.wav

Peak level 99.7 %
Range quality 99.9 %
Test CRC 0A0C3178
Copy CRC 0A0C3178
Copy OK

No errors occurred

End of status report
Audiochecker Log
AUDIOCHECKER v2.0 beta (build 457) - by Dester - [email protected]
~~~~~~~~~~~~~~~~~~~~~~~~~~~~~~~~~~
-=== DO NOT EDIT THIS FILE! ===-

Path: ...\2009 - Бленди, Мікси Та Інші Музичні Пародії

01 -=- 01 - Що Ти Зміг.wav -=- CDDA (100%)
02 -=- 02 - Концерти.wav -=- CDDA (100%)
03 -=- 03 - Одна.wav -=- CDDA (100%)
04 -=- 04 - Стяги На Стяги.wav -=- CDDA (99%)
05 -=- 05 - Быть Самим Собой.wav -=- CDDA (99%)
06 -=- 06 - Хоттабыч.wav -=- CDDA (100%)
07 -=- 07 - Наодинці.wav -=- CDDA (100%)
08 -=- 08 - Королева.wav -=- CDDA (87%)
09 -=- 09 - Поліна.wav -=- CDDA (100%)
10 -=- 10 - Вахтёрам.wav -=- CDDA (100%)
11 -=- 11 - Ta4To.wav -=- CDDA (100%)
12 -=- 12 - Come Around (Bonus).wav -=- CDDA (100%)

Summary 98,75% CDDA

39002692
2010 - Всё включено


01 - Я твой - 3:31
02 - Холода.нет - 3:07
03 - Hip-Hop - 3:49
04 - Стяги на стяги - 3:44
05 - Бета-каротин - 4:02
06 - Тримай - 3:53
07 - Cash-бабулес - 4:02
08 - Що ти змiг - 4:13
09 - Квiти в волоссi - 5:34
10 - Звёзды не ездят в метро - 3:21
11 - Летний дождь - 3:22

Тривалість: 00:42:39
Видавець: Lavina Music
Мова: російська (01-02, 10-11), українська (03-09)
EAC Log

Exact Audio Copy V0.99 prebeta 5 from 4. May 2009

EAC extraction logfile from 5. August 2010, 16:43

Бумбокс / Всё включено

Used drive : TSSTcorpCDDVDW SH-S203B Adapter: 0 ID: 1

Read mode : Secure
Utilize accurate stream : Yes
Defeat audio cache : Yes
Make use of C2 pointers : No

Read offset correction : 6
Overread into Lead-In and Lead-Out : No
Fill up missing offset samples with silence : Yes
Delete leading and trailing silent blocks : No
Null samples used in CRC calculations : Yes
Used interface : Native Win32 interface for Win NT & 2000

Used output format : Internal WAV Routines
Sample format : 44.100 Hz; 16 Bit; Stereo

TOC of the extracted CD

Track | Start | Length | Start sector | End sector
---------------------------------------------------------
1 | 0:00.00 | 3:30.56 | 0 | 15805
2 | 3:30.56 | 3:06.72 | 15806 | 29827
3 | 6:37.53 | 3:49.15 | 29828 | 47017
4 | 10:26.68 | 3:44.33 | 47018 | 63850
5 | 14:11.26 | 4:02.16 | 63851 | 82016
6 | 18:13.42 | 3:53.15 | 82017 | 99506
7 | 22:06.57 | 4:02.33 | 99507 | 117689
8 | 26:09.15 | 4:12.45 | 117690 | 136634
9 | 30:21.60 | 5:34.19 | 136635 | 161703
10 | 35:56.04 | 3:21.05 | 161704 | 176783
11 | 39:17.09 | 3:21.52 | 176784 | 191910

Range status and errors

Selected range

Filename C:\Documents and Settings\Администратор\Рабочий стол\Бумбокс - Всё включено (2010)[APE]\Бумбокс - Всё включено.wav

Peak level 100.0 %
Range quality 100.0 %
Test CRC BF3F69F3
Copy CRC BF3F69F3
Copy OK

No errors occurred

End of status report
Audiochecker Log
AUDIOCHECKER v2.0 beta (build 457) - by Dester - [email protected]
~~~~~~~~~~~~~~~~~~~~~~~~~~~~~~~~~~
-=== DO NOT EDIT THIS FILE! ===-

Path: ...\2010 - Всё включено

01 -=- 01 - Я твой.wav -=- CDDA (100%)
02 -=- 02 - Холода.нет.wav -=- CDDA (100%)
03 -=- 03 - Hip-Hop.wav -=- CDDA (100%)
04 -=- 04 - Стяги на стяги.wav -=- CDDA (100%)
05 -=- 05 - Бета-каротин.wav -=- CDDA (100%)
06 -=- 06 - Тримай.wav -=- CDDA (100%)
07 -=- 07 - Cash-бабулес.wav -=- CDDA (100%)
08 -=- 08 - Що ти змiг.wav -=- CDDA (100%)
09 -=- 09 - Квiти в волоссi.wav -=- CDDA (100%)
10 -=- 10 - Звёзды не ездят в метро.wav -=- CDDA (100%)
11 -=- 11 - Летний дождь.wav -=- CDDA (100%)

Summary 100,00% CDDA

162162788
Джерело: na3ar (2005), Abbath (2006), Pixi (2007), dernyko (2008), a_av (2009), destiny_child (2010)
Тривалість: 04:23:10
Мова: українська (1-6), російська (2-6), англійська (4-5)
Аудіо-кодек: (EAC Log, audiochecker log)
Бітрейт: lossless (816-939 кбіт/с)
ОНОВЛЕНО 13.04.2010
Додано альбом "2009 - Бленди, Мікси Та Інші Музичні Пародії", подяка a_av за реліз.
ОНОВЛЕНО 07.08.2010
Додано альбом "2010 - Всё включено" з ковриками


Золотий реліз (завантажене не впливає на рейтинг)
 Трекер:    Зареєстрований   

Завантажити / скачати українську музику



відео для новачків



 Зареєстрований:   2010-08-07 14:56
 Розмір:   1.85 GB 
 Оцінка музики:   9.8/10 (Голосів: 59)
   
6c6c6 
Поважний учасник


З нами з: 30.09.07
Востаннє: 30.09.09
Повідомлень: 3671

2009-07-29 22:10  
1) дані про відео слід вказувати як і у релізах музичного відео (та й звичайного відео) і мінімум 3 скріншоти);
2) замість „/“ як роздільника номерів пісень у Мові має бути „,“ (кома);
3) у загальному пункті Мова слід зазначити в яких альбомах яка на кшталт як у альбомі в піснях;
4)
plyrvt написано:
Видавець: Music Factory Group (2005), Moon records (2006-2007), "Издательство Монолит" (2008)

нут також ліпше замість років зазначати номер альбому, а ще краще просто до кожного альбому прописати Видавця;
5) необов’язкове косметичне зауваження: або ж обкладинки розмістити по центру зберігши їх розмір, або зменшити хоч до 300х300 чи 200х200.

Додано через 1 хвилину 53 секунди:

П.С. Прошу до кожного альбому в описі під спойлерами надавати логи EAC та audiochecker. Сподіваюсь не обтяжить, а іншим – зручніше. Наперед дякую.

VITALYA55588 
Новенький


З нами з: 26.10.09
Востаннє: 27.11.09
Повідомлень: 1

2009-10-26 20:01  
Величезне ДЯКУЮ сайту. аффтару респек і уважуха. Бумбокс - Ви найкращі у цілій ненці Україні! мамітату привіт
Effudza 
Новенький


З нами з: 23.12.09
Востаннє: 29.10.12
Повідомлень: 3

2009-12-23 01:41  
Дякую за Бумбокс. Бумбокс - це файно!
iraivant 
Новенький


З нами з: 15.01.10
Востаннє: 18.07.19
Повідомлень: 21

2010-01-18 10:56  
Я сам не дуже то і фанат цих хлопців, але моя дівчина дуже любить послухати! В кінці кінців меломан будь-якого рівня повинен слухат музику в нормальному, найбільш наближеному до реального звучання, форматі. Дякуємо Вам за реліз і вмоляємо не йти з роздачі.
plyrvt 
VIP


З нами з: 04.12.08
Востаннє: 22.07.19
Повідомлень: 400

2010-04-13 20:12  
Прохання до сідерів перекачати торент у зв'язку з оновленням.
Doomdrake 
Свій


З нами з: 19.05.08
Востаннє: 24.07.19
Повідомлень: 73

2010-04-28 22:57  
УУУ)))) Спасибі був на їхньому концерті @Львів ..... Мега бомба вживу!!!!
vladisvini 
Новенький


З нами з: 11.01.10
Востаннє: 15.05.15
Повідомлень: 1

2010-07-26 13:59  
дякую
plyrvt 
VIP


З нами з: 04.12.08
Востаннє: 22.07.19
Повідомлень: 400

2010-08-07 14:57  
Прохання до сідерів перекачати торент у зв'язку з оновленням.
Hollander 
Поважний учасник


З нами з: 10.04.09
Востаннє: 11.07.19
Повідомлень: 236

2010-11-25 14:26  
Як слухати/зробити ФЛАК так щоб були окремі файли???
ssTAss 
Модератор музики


З нами з: 05.07.08
Востаннє: 24.07.19
Повідомлень: 15195

2010-11-25 16:31  
завантажте собі foobar2000 і буде вам щастя
він і прочитає, і поріже, і переконвертує (при потребі)

Hollander 
Поважний учасник


З нами з: 10.04.09
Востаннє: 11.07.19
Повідомлень: 236

2010-11-25 22:41  
Дякую! Спробую!
JekaNazar 
Поважний учасник


З нами з: 14.07.10
Востаннє: 06.07.14
Повідомлень: 151

2011-01-23 19:49  
Величезне дякую, за Бумбокс)
victordnepr 
Свій


З нами з: 16.01.11
Востаннє: 23.07.19
Повідомлень: 82

2011-08-05 23:07  
оу.... дуже дякую!!!! супер роздача бомба!!!!!! ще раз дякую
lasmen 
VIP


З нами з: 09.12.11
Востаннє: 11.08.13
Повідомлень: 618

2012-03-13 21:49  
Непоганий гурт. Тут російських пісень немає? А то потім видаляти.
plyrvt 
VIP


З нами з: 04.12.08
Востаннє: 22.07.19
Повідомлень: 400

2013-01-07 00:30  
lasmen не очкуй, 7 песен есть на русском Happy

Ты Королева Робин Гуда, Люда
Нет ты принцесса, поэтесса
Завтрак чемпиона ему на блюдо
И таблеточку от стресса

sandman 
VIP


З нами з: 12.08.12
Востаннє: 23.07.19
Повідомлень: 272

2016-05-15 22:01  
люди, підкажіть, в чому може бути проблема? наразі 5 сідів, проте ніфіга не качається, вже півдня жодного байту Sad (1)
staf777 
Відео Гуртом - підтримка та поширення
Відео Гуртом - підтримка та поширення


З нами з: 16.11.16
Востаннє: 24.07.19
Повідомлень: 2684

2016-11-22 16:30  
Дякую - просто супер - кращі
Ваш часовий пояс: GMT + 2 Години

Нова тема   Відповісти