Ліга Європи 2014-2015 / Фінал / Дніпро (Україна) - Севілья (Іспанія) | Футбол 1 HD / 2 + 2 (27.05.2015) 720p + Нагородження

Нові коментарі

Нова тема   Відповісти
Останній раз роздавалося antik_2008 (2020-10-20)
Автор Повідомлення
sergiyko.9 
Забанено
Забанено


З нами з: 17.07.14
Востаннє: 01.01.16
Повідомлень: 201

2015-05-28 17:36  
Ліга Європи 2014-2015 / Фінал / Дніпро (Україна) - Севілья (Іспанія) | Футбол 1 HD / 2 + 2 (27.05.2015) 720p

Ліга Європи 2014-2015 / Фінал / Дніпро (Україна) - Севілья (Іспанія) | Футбол 1 HD / 2 + 2 (27.05.2015) 720p + Нагородження


Телеканал: Футбол 1 HD / 2 + 2
Опис:
Ліга Європи 2014-2015 / Фінал Дніпро (Україна) - Севілья (Іспанія)

27 травня 2015 року, среда. 21:45
фінал
Стадіон: Народови (Варшава, Польща), місткість: 58500
Головний суддя: Мартін Аткінсон (Лідс, Вест-Йоркшир, Англія); Асистент: Майкл Малларкі (Девоншир, Англія);

Асистент: Стівен Чайлд (Кент, Англія)
Тривалість:
02:07:11
Якість: 720p
Відео:
кодек:
розмір кадру: 1280x720
бітрейт: ~4000 кб/с

Аудіо:
мова: українська, російська
переклад: багатоголосий закадровий
кодек: 2.0
бітрейт: 192 кб/с
Склади:
Скріншоти






Info
Код:

General
Complete name                            : EuropeLeague.2014-2015.Final.Dnipro-Sevilla..720p.Ukr.
Format                                   :
Format version                           : Version 4
File size                                : 3.81 GiB
Duration                                 : 2 h 7 min
Overall bit rate                         : 4 291 kb/s
Encoded date                             : UTC 2015-05-28 13:47:46
Writing application                      : v7.8.0 ('River Man') 32bit built on Mar 27 2015 16:18:02
Writing library                          : libebml v1.3.1 + v1.4.2

Video
ID                                       : 1
Format                                   : AVC
Format/Info                              : Advanced Video Codec
Format profile                           : [email protected]
Format settings                          : CABAC / 4 Ref Frames
Format settings, CABAC                   : Yes
Format settings, RefFrames               : 4 frames
Codec ID                                 : V_MPEG4/ISO/AVC
Duration                                 : 2 h 7 min
Bit rate                                 : 4 096 kb/s
Width                                    : 1 280 pixels
Height                                   : 720 pixels
Display aspect ratio                     : 16:9
Frame rate mode                          : Constant
Frame rate                               : 50.000 FPS
Color space                              : YUV
Chroma subsampling                       : 4:2:0
Bit depth                                : 8 bits
Scan type                                : Progressive
Bits/(Pixel*Frame)                       : 0.089
Stream size                              : 3.64 GiB (95%)
Language                                 : English
Default                                  : Yes
Forced                                   : No
Color range                              : Limited
Color primaries                          : BT.709
Transfer characteristics                 : BT.709
Matrix coefficients                      : BT.709

Audio
ID                                       : 2
Format                                   : AC-3
Format/Info                              : Audio Coding 3
Commercial name                          : Dolby Digital
Codec ID                                 : A_AC3
Duration                                 : 2 h 7 min
Bit rate mode                            : Constant
Bit rate                                 : 192 kb/s
Channel(s)                               : 2 channels
Channel layout                           : L R
Sampling rate                            : 48.0 kHz
Frame rate                               : 31.250 FPS (1536 SPF)
Bit depth                                : 16 bits
Compression mode                         : Lossy
Delay relative to video                  : 8 ms
Stream size                              : 175 MiB (4%)
Title                                    : Ukrainian 2+2
Language                                 : Ukrainian
Service kind                             : Complete Main
Default                                  : Yes
Forced                                   : No

Menu
00:00:00.000                             : :(не названо)
00:03:13.400                             : :(не названо)
00:57:41.100                             : :(не названо)
01:49:58.400                             : :(не названо)
Джерело:
Особиста оцінка: 7 - моїй подрузі не сподобалося


Золотий реліз (завантажене не впливає на рейтинг)
 Трекер:    Зареєстрований   

Завантажити / скачати торрент



відео для новачків



 Зареєстрований:   2015-05-28 17:36
 Розмір:   3.81 GB 
 Оцінка:   9.8/10 (Голосів: 14)
   
djneo 
Частий відвідувач


З нами з: 30.11.07
Востаннє: 19.10.20
Повідомлень: 34

2015-05-29 09:10  
Наполі? Чи ти мав на увазі на полі? )))
sergiyko.9 
Забанено
Забанено


З нами з: 17.07.14
Востаннє: 01.01.16
Повідомлень: 201

2015-05-29 10:14  
Просто неперевірений копіпаст. Зараз виправлю.
bot 
робот


З нами з: 30.09.07
Востаннє: 26.05.05
Повідомлень: 25905

2016-08-14 20:53  
Тему перенесено з Єврокубки до форуму Архів відео

Причина перенесення: Останній раз роздавалося Відьмачечок (2015-12-31)
11FrYkT

Anonymous... 
Свій


З нами з: 11.01.18
Востаннє: 06.10.20
Повідомлень: 148

2018-04-11 14:48  
Став на роздачу.
bot 
робот


З нами з: 30.09.07
Востаннє: 26.05.05
Повідомлень: 25905

2018-04-13 16:23  
Тему перенесено з Архів відео до форуму Єврокубки


11FrYkT

antik_2008 
Релізер і модератор відео


З нами з: 20.10.08
Востаннє: 19.10.20
Повідомлень: 4188

2019-10-12 14:49  
Anonymous... написано:
Став на роздачу.

Теж підтримаю

Ваш часовий пояс: GMT + 2 Години

Нова тема   Відповісти