Губка Боб: Життя на сушi / The SpongeBob Movie: Sponge Out of Water (2015) 1080p 3D [Half OverUnder] Ukr/Eng | Sub Eng

Нові коментарі

Нова тема   Відповісти
Автор Повідомлення
aborigen2305 
Новенький


З нами з: 24.02.09
Востаннє: 17.08.17
Повідомлень: 1

2015-05-27 17:50  
Губка Боб: Життя на сушi / The SpongeBob Movie: Sponge Out of Water (2015) 1080p 3D [Half OverUnder] Ukr/Eng | Sub Eng


Жанр: анімація, пригодницький, комедія, сімейний
Країна: США



Кінокомпанія: Paramount Animation, Nickelodeon Movies, United Plankton Pictures
Режисер: Пол Тіббіт / Paul Tibbitt, Майк Мітчел / Mike Mitchell
Актори: Антоніо Бандерас / Antonio Banderas, Том Кенні / Tom Kenny, Сет Грін / Seth Green, Кленсі Браун / Clancy Brown, Томас Ф. Вілсон / Thomas F. Wilson, Джесіка Альберг / Jesica Ahlberg, Білл Фагербаккі / Bill Fagerbakke та інші

Сюжет:
У 2015 улюбленець всього світу, невгамовний мешканець морських глибин Губка Боб виходить на поверхню, де його чекають надзвичайні і карколомні пригоди. Зустрічайте Губку Боба у новому вимірі!


Тривалість: 01:32:53
Якість: 1080p 3D [Half OverUnder]
Відео:
кодек:
розмір кадру: 1920x1080
бітрейт: 10700 кб/с

Аудіо # 1:
мова: українська
переклад: професійний дубльований
кодек: 2.0
бітрейт: 192 кб/с

Аудіо # 2:
мова: англійська
переклад: оригінал
кодек: 5.1
бітрейт: 1536 кб/с

Субтитри:
мова: англійська
тип: програмні (м'які)
формат: *.srt

Збережено оригінальні розділи, як на Blu-ray
Info
General
Unique ID : 226744021928283625172551367358496291174 (0xAA954F6644CEC9D5BFBAC75B2EBAB966)
Format :
Format version : Version 4 / Version 2
File size : 8.19 GiB
Duration : 1h 32mn
Overall bit rate : 12.6 Mbps
Movie name : Губка Боб в 3D / The SpongeBob Movie: Sponge Out of Water (2015) 3D
Encoded date : UTC 2015-05-27 14:13:24
Writing application : mkvmerge v7.4.0 ('Circles') 64bit built on Dec 12 2014 12:19:56
Writing library : libebml v1.3.0 + libmatroska v1.4.1
DURATION : 01:22:53.802000000
NUMBER_OF_FRAMES : 1280
NUMBER_OF_BYTES : 36888
_STATISTICS_WRITING_APP : mkvmerge v7.4.0 ('Circles') 64bit built on Dec 12 2014 12:19:56
_STATISTICS_WRITING_DATE_UTC : 2015-05-27 14:13:24
_STATISTICS_TAGS : BPS DURATION NUMBER_OF_FRAMES NUMBER_OF_BYTES

Video
ID : 1
Format : AVC
Format/Info : Advanced Video Codec
Format profile : [email protected]
Format settings, CABAC : Yes
Format settings, ReFrames : 4 frames
Codec ID : V_MPEG4/ISO/AVC
Duration : 1h 32mn
Bit rate : 10.7 Mbps
Width : 1 920 pixels
Height : 1 080 pixels
Display aspect ratio : 16:9
Frame rate mode : Constant
Frame rate : 23.976 fps
Color space : YUV
Chroma subsampling : 4:2:0
Bit depth : 8 bits
Scan type : Progressive
Bits/(Pixel*Frame) : 0.214
Stream size : 6.92 GiB (85%)
Title : by Ash61
Writing library : core 138 r2358 9e941d1
Encoding settings : cabac=1 / ref=4 / deblock=1:-3:-3 / analyse=0x3:0x113 / me=umh / subme=10 / psy=1 / psy_rd=1.00:0.00 / mixed_ref=1 / me_range=32 / chroma_me=1 / trellis=2 / 8x8dct=1 / cqm=0 / deadzone=21,11 / fast_pskip=1 / chroma_qp_offset=-2 / threads=12 / lookahead_threads=3 / sliced_threads=0 / nr=0 / decimate=1 / interlaced=0 / bluray_compat=0 / constrained_intra=0 / bframes=11 / b_pyramid=2 / b_adapt=2 / b_bias=0 / direct=3 / weightb=1 / open_gop=0 / weightp=2 / keyint=250 / keyint_min=23 / scenecut=40 / intra_refresh=0 / rc_lookahead=60 / rc=crf / mbtree=1 / crf=15.0 / qcomp=0.70 / qpmin=10 / qpmax=51 / qpstep=4 / vbv_maxrate=40000 / vbv_bufsize=30000 / crf_max=0.0 / nal_hrd=none / frame-packing=4 / ip_ratio=1.40 / aq=1:0.70
Language : English
Default : Yes
Forced : No
DURATION : 01:32:34.508000000
NUMBER_OF_FRAMES : 133175
NUMBER_OF_BYTES : 7605706654
_STATISTICS_WRITING_APP : mkvmerge v7.4.0 ('Circles') 64bit built on Dec 12 2014 12:19:56
_STATISTICS_WRITING_DATE_UTC : 2015-05-27 14:13:24
_STATISTICS_TAGS : BPS DURATION NUMBER_OF_FRAMES NUMBER_OF_BYTES

Audio #1
ID : 2
Format : AC-3
Format/Info : Audio Coding 3
Mode extension : CM (complete main)
Format settings, Endianness : Big
Codec ID : A_AC3
Duration : 1h 32mn
Bit rate mode : Constant
Bit rate : 192 Kbps
Channel(s) : 2 channels
Channel positions : Front: L R
Sampling rate : 48.0 KHz
Bit depth : 16 bits
Compression mode : Lossy
Stream size : 128 MiB (2%)
Title : 2.0 @ 192 kbps
Language : Ukrainian
Default : Yes
Forced : Yes

Audio #2
ID : 3
Format :
Format/Info : Digital Theater Systems
Mode : 16
Format settings, Endianness : Big
Codec ID : A_DTS
Duration : 1h 32mn
Bit rate mode : Constant
Bit rate : 1 509 Kbps
Channel(s) : 6 channels
Channel positions : Front: L C R, Side: L R, LFE
Sampling rate : 48.0 KHz
Bit depth : 24 bits
Compression mode : Lossy
Stream size : 1 003 MiB (12%)
Title : 5.1 @ 1536 kbps
Language : English
Default : No
Forced : No

Text
ID : 4
Format : UTF-8
Codec ID : S_TEXT/UTF8
Codec ID/Info : UTF-8 Plain Text
Language : English
Default : No
Forced : No

Menu
00:00:00.000 : en:00:00:00.000
00:03:40.387 : en:00:03:40.387
00:06:22.173 : en:00:06:22.173
00:12:29.999 : en:00:12:29.999
00:18:21.600 : en:00:18:21.600
00:22:52.079 : en:00:22:52.079
00:30:14.688 : en:00:30:14.688
00:35:37.886 : en:00:35:37.886
00:39:50.972 : en:00:39:50.972
00:43:13.424 : en:00:43:13.424
00:50:54.510 : en:00:50:54.510
00:55:16.396 : en:00:55:16.396
01:00:03.099 : en:01:00:03.099
01:04:19.355 : en:01:04:19.355
01:10:16.587 : en:01:10:16.587
01:16:20.367 : en:01:16:20.367
01:20:29.491 : en:01:20:29.491
01:23:30.839 : en:01:23:30.839
Скріншоти



Відео виконане у форматі 3D! Для перегляду потрібні спеціальні окуляри та стереоплеєр або телевізор з підтримкою технології 3D!

Інструкції щодо перегляду відео у форматі 3D



Джерело:


 Трекер:    Зареєстрований   

Завантажити / скачати мультфільм українською



відео для новачків



 Зареєстрований:   2015-05-27 17:50
 Розмір:   8.19 GB 
 Оцінка мультфільму:   8.9/10 (Голосів: 12)
   
igor911 
Відео Гуртом
Відео Гуртом


З нами з: 18.01.08
Востаннє: 19.08.17
Повідомлень: 7281

2015-05-27 19:33  
aborigen2305, за Правилами розділу скріншоти мають бути в png. І заміни в Джерелі банер Гуртом на Відео Гуртом.

Додано через 1 хвилину 10 секунд:

І постав постер з сусідньої теми.

Додано через 5 хвилин 8 секунд:

Також додай фразу "Збережено оригінальні розділи, як на Blu-ray" (можна перед спойлером Медіаінфо)

-VipeR- 
VIP


З нами з: 17.07.08
Востаннє: 18.08.17
Повідомлень: 289

2015-05-28 09:09  
Клас, дякую!
Hanway 
Відео Гуртом - запис з ТБ
Відео Гуртом - запис з ТБ


З нами з: 20.05.11
Востаннє: 18.08.17
Повідомлень: 488

2015-05-28 10:24  
Тут посилання на imdb іншого фільму.
igor911 
Відео Гуртом
Відео Гуртом


З нами з: 18.01.08
Востаннє: 19.08.17
Повідомлень: 7281

2015-05-28 10:30  
Виправив IMDB
Ваш часовий пояс: GMT + 2 Години

Нова тема   Відповісти