ТНМК | Танок на майдані Конго | Дискографія [5 альбомів + 2 Maxi + 3 спецпроекти] (1998-2010) [APE] | Hip-Hop

Нові коментарі

Нова тема   Відповісти
Автор Повідомлення
plyrvt 
VIP


З нами з: 04.12.08
Востаннє: 22.07.19
Повідомлень: 400

2009-07-27 16:01  
ТНМК | Танок на майдані Конго
Дискографія [5 альбомів + 2 Maxi + 3 спецпроекти] (1998-2010) [APE] | Hip-Hop



Стиль: Hip-Hop
Країна, місто: Україна, Харків
Сайти: Офіційний сайт
Видавець: Astra records (2004), Moon records (2005-2006), ТОВ "Єнісей Груп"
Виконавці:
Олег «Фагот» Михайлюта, лідер-вокаліст, аранжувальник
Олександр «Фоззі-бой» Сидоренко, лідер-вокаліст, поет-драматург
Костянтин «Спец Котя» Жуйков, бас-гітарист
Ярослав «Мудрий» Верьовкін, гітарист
Олексій «Льопа» Саранчін, клавішник
Віктор «Вітольд» Корженко, ударник
Антон «ТонІк» Батурин, диск-жокей
Альбоми
1998 - Зроби мені хіп-хоп (2004 Astra)


01 - Інтро-іділія - 1:00
02 - Зроби мені хіп-хоп - 4:31
03 - Куме? - 0:48
04 - Парті - 5:19
05 - Оце коли... - 0:18
06 - Зачекай - 5:26
07 - Не треба - 0:25
08 - ШоПопалоШоу - 4:23
09 - Тоді - то не тогда - 0:53
10 - 14.06.98 - 0:52
11 - Дибани мене - 3:21
12 - Вірш 12: глава 3 - 0:58
13 - Бомбіні - 5:19
14 - Збережем природу для... - 0:43
15 - Джаззі - 4:44
16 - Маєм чути стріл - 0:33
17 - Чуваки - 3:09
18 - Як би була б така... - 0:38
19 - Ото таке - 3:48
20 - Аунтентичне аутро - 0:36
21 - Лунає-Гупає - 0:20
22 - Зроби мені хіп-хоп. 20 років по тому - 3:56
23 - Вінєгрєт - 0:35
24 - Хрум-Хрум 2004 version - 4:37

Тривалість: 00:57:13
EAC Log
Exact Audio Copy V0.99 prebeta 4 from 23. January 2008

Отчёт EAC об извлечении, выполненном 10. марта 2009, 16:58

ТНМК / Зроби мені хіп-хоп

Дисковод: Optiarc DVD RW AD-5170A Adapter: 0 ID: 0

Режим чтения : Достоверность
Использование точного потока : Да
Отключение кэша аудио : Да
Использование указателей C2 : Нет

Коррекция смещения при чтении : 48
Способность читать области Lead-in и Lead-out : Нет
Заполнение пропущенных сэмплов тишиной : Да
Удаление блоков с тишиной в начале и конце : Нет
При вычислениях CRC использовались нулевые сэмплы : Да
Интерфейс : Установленный внешний ASPI-интерфейс

Выходной формат : Внутренние WAV-операции
Формат сэмплов : 44.100 Гц; 16 бит; стерео

TOC извлечённого CD

Трек | Старт | Длительность | Начальный сектор | Конечный сектор
---------------------------------------------------------------------
1 | 0:00.00 | 0:59.55 | 0 | 4479
2 | 0:59.55 | 4:31.11 | 4480 | 24815
3 | 5:30.66 | 0:47.40 | 24816 | 28380
4 | 6:18.31 | 5:19.21 | 28381 | 52326
5 | 11:37.52 | 0:18.32 | 52327 | 53708
6 | 11:56.09 | 5:26.37 | 53709 | 78195
7 | 17:22.46 | 0:25.02 | 78196 | 80072
8 | 17:47.48 | 4:22.41 | 80073 | 99763
9 | 22:10.14 | 0:53.22 | 99764 | 103760
10 | 23:03.36 | 0:51.40 | 103761 | 107625
11 | 23:55.01 | 3:21.15 | 107626 | 122715
12 | 27:16.16 | 0:58.15 | 122716 | 127080
13 | 28:14.31 | 5:19.15 | 127081 | 151020
14 | 33:33.46 | 0:43.35 | 151021 | 154280
15 | 34:17.06 | 4:44.07 | 154281 | 175587
16 | 39:01.13 | 0:32.74 | 175588 | 178061
17 | 39:34.12 | 3:08.69 | 178062 | 192230
18 | 42:43.06 | 0:38.30 | 192231 | 195110
19 | 43:21.36 | 3:47.50 | 195111 | 212185
20 | 47:09.11 | 0:35.48 | 212186 | 214858
21 | 47:44.59 | 0:19.51 | 214859 | 216334
22 | 48:04.35 | 3:55.47 | 216335 | 234006
23 | 52:00.07 | 0:35.29 | 234007 | 236660
24 | 52:35.36 | 4:37.16 | 236661 | 257451
25 | 59:44.52 | 2:20.44 | 268852 | 279395

Характеристики диапазона извлечения и сообщения об ошибках

Выбранный диапазон

Имя файла G:\Lossless\ТНМК - Зроби мені хіп-хоп.wav

Пиковый уровень 99.1 %
Качество диапазона 100.0 %
CRC копии 67261E79
Копирование... OK

Ошибок не произошло

Конец отчёта
Audiochecker Log
AUDIOCHECKER v2.0 beta (build 457) - by Dester - [email protected]
~~~~~~~~~~~~~~~~~~~~~~~~~~~~~~~~~~
-=== DO NOT EDIT THIS FILE! ===-

Path: ...\1998 - Зроби мені хіп-хоп

01 -=- 01 - Інтро-іділія.wav -=- CDDA (100%)
02 -=- 02 - Зроби мені хіп-хоп.wav -=- CDDA (100%)
03 -=- 03 - Куме.wav -=- CDDA (100%)
04 -=- 04 - Парті.wav -=- CDDA (100%)
05 -=- 05 - Оце коли.wav -=- CDDA (100%)
06 -=- 06 - Зачекай.wav -=- CDDA (100%)
07 -=- 07 - Не треба.wav -=- CDDA (100%)
08 -=- 08 - ШоПопалоШоу.wav -=- CDDA (100%)
09 -=- 09 - Тоді - то не тогда.wav -=- CDDA (100%)
10 -=- 10 - 14.06.98.wav -=- CDDA (100%)
11 -=- 11 - Дибани мене.wav -=- CDDA (100%)
12 -=- 12 - Вірш 12_ глава 3.wav -=- CDDA (100%)
13 -=- 13 - Бомбіні.wav -=- CDDA (100%)
14 -=- 14 - Збережем природу для.wav -=- CDDA (100%)
15 -=- 15 - Джаззі.wav -=- CDDA (100%)
16 -=- 16 - Маєм чути стріл.wav -=- CDDA (100%)
17 -=- 17 - Чуваки.wav -=- CDDA (100%)
18 -=- 18 - Як би була б така.wav -=- CDDA (100%)
19 -=- 19 - Ото таке.wav -=- CDDA (99%)
20 -=- 20 - Аунтентичне аутро.wav -=- CDDA (100%)
21 -=- 21 - Лунає-Гупає.wav -=- CDDA (100%)
22 -=- 22 - Зроби мені хіп-хоп. 20 років по тому.wav -=- CDDA (100%)
23 -=- 23 - Вінєгрєт.wav -=- CDDA (99%)
24 -=- 24 - Хрум-Хрум 2004 version.wav -=- CDDA (100%)

Summary 99,92% CDDA

8581092
Data CD

Якість:
кодек: MS MPEG4 V2
розмір кадру: 360*288 (4:3)
бітрейт відео 553 кбіт/сек

Аудіо: мова: українська
кодек: Lame MP3, 44100 кГц
бітрейт: 159 кбіт/сек

ТНМК - Зроби мені хіп-хоп.avi (Тривалість: 00:03:58)
[img][/img]
[img][/img]
[img][/img]
2001 - Нєформат (2004 Astra)


01 - Весела пiсенька - 0:46
02 - По радiо спiвали москалi - 3:25
03 - Ciрйожа - 0:40
04 - Здра, моя ра - 3:16
05 - *** - 0:21
06 - Восени - 4:15
07 - Уроки украiнської - 0:59
08 - ПоRAPалося серце - 3:36
09 - Закатай - 0:41
10 - А море де? - 4:00
11 - Погрозливый гуркiт - 0:37
12 - TIкаю - 4:32
13 - 14.06.001 - 0:51
14 - На дачу.ru feat. Miхей - 4:40
15 - 15.06.001 - 0:18
16 - люба Люба - 3:23
17 - Гоголя промова - 0:51
18 - Мила/Вiй'2000 feat. H.Матвiенко - 4:20
19 - Як тобi до вподоби це? - 0:36
20 - Ретро - 3:44
21 - 911 - 0:36
22 - Welcome сюди III - 0:42
23 - По барабану - 3:15
24 - www.vsravsya.com.om ;-) - 1:24
25 - Ансамбль 'Сонечко' comeback - 0:35
26 - На дачу.ua - 4:24
27 - Welcome сюди II - 0:57
28 - Невiстка - 0:48
29 - За нашов стодолоу - 3:15
30 - Патрони - 0:22
31 - Кому нокаут? - 3:56
32 - Граблі - 4:15

Тривалість: 01:10:20
EAC Log
Exact Audio Copy V0.99 prebeta 4 from 23. January 2008

Отчёт EAC об извлечении, выполненном 10. марта 2009, 17:24

ТНМК / Неформат

Дисковод: Optiarc DVD RW AD-5170A Adapter: 0 ID: 0

Режим чтения : Достоверность
Использование точного потока : Да
Отключение кэша аудио : Да
Использование указателей C2 : Нет

Коррекция смещения при чтении : 48
Способность читать области Lead-in и Lead-out : Нет
Заполнение пропущенных сэмплов тишиной : Да
Удаление блоков с тишиной в начале и конце : Нет
При вычислениях CRC использовались нулевые сэмплы : Да
Интерфейс : Установленный внешний ASPI-интерфейс

Выходной формат : Внутренние WAV-операции
Формат сэмплов : 44.100 Гц; 16 бит; стерео

TOC извлечённого CD

Трек | Старт | Длительность | Начальный сектор | Конечный сектор
---------------------------------------------------------------------
1 | 0:00.00 | 0:45.73 | 0 | 3447
2 | 0:45.73 | 3:25.12 | 3448 | 18834
3 | 4:11.10 | 0:40.07 | 18835 | 21841
4 | 4:51.17 | 3:15.60 | 21842 | 36526
5 | 8:07.02 | 0:21.00 | 36527 | 38101
6 | 8:28.02 | 4:14.72 | 38102 | 57223
7 | 12:42.74 | 0:59.37 | 57224 | 61685
8 | 13:42.36 | 3:35.58 | 61686 | 77868
9 | 17:18.19 | 0:41.31 | 77869 | 80974
10 | 17:59.50 | 4:00.26 | 80975 | 99000
11 | 22:00.01 | 0:36.71 | 99001 | 101771
12 | 22:36.72 | 4:31.57 | 101772 | 122153
13 | 27:08.54 | 0:51.03 | 122154 | 125981
14 | 27:59.57 | 4:39.70 | 125982 | 146976
15 | 32:39.52 | 0:17.48 | 146977 | 148299
16 | 32:57.25 | 3:23.02 | 148300 | 163526
17 | 36:20.27 | 0:51.19 | 163527 | 167370
18 | 37:11.46 | 4:19.53 | 167371 | 186848
19 | 41:31.24 | 0:36.26 | 186849 | 189574
20 | 42:07.50 | 3:44.09 | 189575 | 206383
21 | 45:51.59 | 0:35.71 | 206384 | 209079
22 | 46:27.55 | 0:42.02 | 209080 | 212231
23 | 47:09.57 | 3:15.19 | 212232 | 226875
24 | 50:25.01 | 1:23.68 | 226876 | 233168
25 | 51:48.69 | 0:35.30 | 233169 | 235823
26 | 52:24.24 | 4:24.22 | 235824 | 255645
27 | 56:48.46 | 0:56.49 | 255646 | 259894
28 | 57:45.20 | 0:47.42 | 259895 | 263461
29 | 58:32.62 | 3:15.13 | 263462 | 278099
30 | 61:48.00 | 0:21.49 | 278100 | 279723
31 | 62:09.49 | 3:55.56 | 279724 | 297404
32 | 66:05.30 | 4:14.46 | 297405 | 316500
33 | 72:52.01 | 5:11.56 | 327901 | 351281

Характеристики диапазона извлечения и сообщения об ошибках

Выбранный диапазон

Имя файла G:\Lossless\ТНМК - Неформат.wav

Пиковый уровень 97.8 %
Качество диапазона 100.0 %
CRC копии E6FC7886
Копирование... OK

Ошибок не произошло

Конец отчёта
Audiochecker Log
AUDIOCHECKER v2.0 beta (build 457) - by Dester - [email protected]
~~~~~~~~~~~~~~~~~~~~~~~~~~~~~~~~~~
-=== DO NOT EDIT THIS FILE! ===-

Path: ...\2001 - Нєформат

01 -=- 01 - Весела пiсенька.wav -=- CDDA (99%)
02 -=- 02 - По радiо спiвали москалi.wav -=- CDDA (100%)
03 -=- 03 - Ciрйожа.wav -=- CDDA (100%)
04 -=- 04 - Здра, моя ра.wav -=- CDDA (99%)
05 -=- 05 - xxx.wav -=- CDDA (100%)
06 -=- 06 - Восени.wav -=- CDDA (100%)
07 -=- 07 - Уроки украiнської.wav -=- CDDA (99%)
08 -=- 08 - ПоRAPалося серце.wav -=- CDDA (100%)
09 -=- 09 - Закатай.wav -=- CDDA (100%)
10 -=- 10 - А море де.wav -=- CDDA (100%)
11 -=- 11 - Погрозливый гуркiт.wav -=- CDDA (100%)
12 -=- 12 - TIкаю.wav -=- CDDA (100%)
13 -=- 13 - 14.06.001.wav -=- CDDA (100%)
14 -=- 14 - На дачу.ru feat. Miхей.wav -=- CDDA (100%)
15 -=- 15 - 15.06.001.wav -=- CDDA (100%)
16 -=- 16 - люба Люба.wav -=- CDDA (100%)
17 -=- 17 - Гоголя промова.wav -=- CDDA (100%)
18 -=- 18 - Мила_Вiй'2000 feat. H.Матвiенко.wav -=- CDDA (100%)
19 -=- 19 - Як тобi до вподоби це.wav -=- CDDA (99%)
20 -=- 20 - Ретро.wav -=- CDDA (100%)
21 -=- 21 - 911.wav -=- CDDA (100%)
22 -=- 22 - Welcome сюди III.wav -=- CDDA (100%)
23 -=- 23 - По барабану.wav -=- CDDA (100%)
24 -=- 24 - www.vsravsya.com.om ;-).wav -=- CDDA (100%)
25 -=- 25 - Ансамбль 'Сонечко' comeback.wav -=- CDDA (100%)
26 -=- 26 - На дачу.ua.wav -=- CDDA (100%)
27 -=- 27 - Welcome сюди II.wav -=- CDDA (100%)
28 -=- 28 - Невiстка.wav -=- CDDA (100%)
29 -=- 29 - За нашов стодолоу.wav -=- CDDA (100%)
30 -=- 30 - Патрони.wav -=- CDDA (100%)
31 -=- 31 - Кому нокаут.wav -=- CDDA (100%)
32 -=- 32 - Граблі.wav -=- CDDA (100%)

Summary 99,88% CDDA

234282692
Data CD

Якість:
кодек: MS MPEG4 V2
розмір кадру: 360*288 (4:3)

Аудіо: мова: українська
кодек: Lame MP3, 44100 кГц
бітрейт: 159 кбіт/сек

ТНМК - Восени.avi (Тривалість: 00:04:01, бітрейт відео 549 кбіт/сек)
[img][/img]
[img][/img]
[img][/img]

ТНМК - Жупан.avi (Тривалість: 00:05:07, бітрейт відео 520 кбіт/сек)
[img][/img]
[img][/img]
[img][/img]
2005 - Сила


01 - ... і переможе - 0:24
02 - Сила - 4:52
03 - аренбі - 0:40
04 - Молодець - 3:39
05 - Забув - 3:27
06 - самураї - 0:16
07 - Банзай - 3:20
08 - смакота - 0:37
09 - Сан-Франциско - 4:03
10 - ніхто - 0:29
11 - Гранули - 4:41
12 - бінго - 0:26
13 - Клоуни - 3:20
14 - Відривайся - 3:44
15 - річка - 0:35
16 - Ноу Кіпіш - 3:28
17 - просто надія - 0:42
18 - Мушу йти - 4:49
19 - ШоПопалоШоу-2005 - 5:39
20 - Все чесно - 5:18
21 - Ніч яка місячна - 0:29
22 - Пупсики - 5:20

Тривалість: 01:00:16
EAC Log
Exact Audio Copy V0.99 prebeta 4 from 23. January 2008

Отчёт EAC об извлечении, выполненном 10. марта 2009, 18:21

ТНМК / Сила

Дисковод: Optiarc DVD RW AD-5170A Adapter: 0 ID: 0

Режим чтения : Достоверность
Использование точного потока : Да
Отключение кэша аудио : Да
Использование указателей C2 : Нет

Коррекция смещения при чтении : 48
Способность читать области Lead-in и Lead-out : Нет
Заполнение пропущенных сэмплов тишиной : Да
Удаление блоков с тишиной в начале и конце : Нет
При вычислениях CRC использовались нулевые сэмплы : Да
Интерфейс : Установленный внешний ASPI-интерфейс

Выходной формат : Внутренние WAV-операции
Формат сэмплов : 44.100 Гц; 16 бит; стерео

TOC извлечённого CD

Трек | Старт | Длительность | Начальный сектор | Конечный сектор
---------------------------------------------------------------------
1 | 0:00.00 | 0:24.29 | 0 | 1828
2 | 0:24.29 | 4:51.46 | 1829 | 23699
3 | 5:16.00 | 0:39.70 | 23700 | 26694
4 | 5:55.70 | 3:38.39 | 26695 | 43083
5 | 9:34.34 | 3:26.73 | 43084 | 58606
6 | 13:01.32 | 0:16.18 | 58607 | 59824
7 | 13:17.50 | 3:19.38 | 59825 | 74787
8 | 16:37.13 | 0:36.39 | 74788 | 77526
9 | 17:13.52 | 4:03.07 | 77527 | 95758
10 | 21:16.59 | 0:28.49 | 95759 | 97907
11 | 21:45.33 | 4:41.04 | 97908 | 118986
12 | 26:26.37 | 0:25.39 | 118987 | 120900
13 | 26:52.01 | 3:19.72 | 120901 | 135897
14 | 30:11.73 | 3:43.73 | 135898 | 152695
15 | 33:55.71 | 0:35.23 | 152696 | 155343
16 | 34:31.19 | 3:27.70 | 155344 | 170938
17 | 37:59.14 | 0:42.14 | 170939 | 174102
18 | 38:41.28 | 4:48.58 | 174103 | 195760
19 | 43:30.11 | 5:39.00 | 195761 | 221185
20 | 49:09.11 | 5:17.43 | 221186 | 245003
21 | 54:26.54 | 0:28.54 | 245004 | 247157
22 | 54:55.33 | 5:20.36 | 247158 | 271193

Характеристики диапазона извлечения и сообщения об ошибках

Выбранный диапазон

Имя файла G:\Lossless\ТНМК - Сила.wav

Пиковый уровень 98.8 %
Качество диапазона 100.0 %
CRC копии 607DD57F
Копирование... OK

Ошибок не произошло

Конец отчёта
Audiochecker Log
AUDIOCHECKER v2.0 beta (build 457) - by Dester - [email protected]
~~~~~~~~~~~~~~~~~~~~~~~~~~~~~~~~~~
-=== DO NOT EDIT THIS FILE! ===-

Path: ...\2005 - Сила

01 -=- 01 - ... і переможе.wav -=- CDDA (100%)
02 -=- 02 - Сила.wav -=- CDDA (100%)
03 -=- 03 - аренбі.wav -=- CDDA (100%)
04 -=- 04 - Молодець.wav -=- CDDA (100%)
05 -=- 05 - Забув.wav -=- CDDA (100%)
06 -=- 06 - самураї.wav -=- CDDA (100%)
07 -=- 07 - Банзай.wav -=- CDDA (100%)
08 -=- 08 - смакота.wav -=- MPEG (89%)
09 -=- 09 - Сан-Франциско.wav -=- CDDA (100%)
10 -=- 10 - ніхто.wav -=- CDDA (99%)
11 -=- 11 - Гранули.wav -=- CDDA (100%)
12 -=- 12 - бінго.wav -=- MPEG (93%)
13 -=- 13 - Клоуни.wav -=- CDDA (100%)
14 -=- 14 - Відривайся.wav -=- CDDA (99%)
15 -=- 15 - річка.wav -=- ERROR
16 -=- 16 - Ноу Кіпіш.wav -=- CDDA (100%)
17 -=- 17 - просто надія.wav -=- CDDA (100%)
18 -=- 18 - Мушу йти.wav -=- CDDA (100%)
19 -=- 19 - ШоПопалоШоу-2005.wav -=- CDDA (100%)
20 -=- 20 - Все чесно.wav -=- CDDA (100%)
21 -=- 21 - Ніч яка місячна.wav -=- MPEG (95%)
22 -=- 22 - Пупсики.wav -=- CDDA (100%)

Summary 86,71% CDDA

194589300
2006 - Пожежі міста Вавілон (2006 Moon records)


01 - Арешт - 4:42
02 - We Are The Champions - 0:52
03 - Та Ти Шо - 4:00
04 - Are U UA? - 0:25
05 - Homo Ukraines - 4:08
06 - Вода - 4:31
07 - My Name Is - 0:12
08 - Іво Бобул - 3:09
09 - Santa said - 0:17
10 - Той хто... feat Асія Ахат - 4:23
11 - Зєбра - 0:25
12 - Ч/Б - 4:03
13 - Вітер надії - 3:37
14 - День народження - 0:25
15 - Марина - 4:05
16 - 14.06.04 - 0:25
17 - Файна Юкрайна - 4:25
18 - СПб - 0:41
19 - Секс!Бокс!Джаз! feat Da-108 - 3:55
20 - Чорта не бачили? - 0:30
21 - Вавілон - 4:17
22 - Не спіши - 1:20
23 - Щедрий - 3:11
24 - Вода (Easy Brothers & ТНМК) - 4:25
25 - Та Ти Шо - кліпова версія - 4:19
26 - Змінюю ноти - 2:37
27 - Вода - французька версія - 4:33
28 - 5'nizza En Automne - 3:38
29 - рекламний ролік альбому - 0:34

Тривалість: 01:18:04
Мова: українська (01-26, 29), французька (27-28)
2010 - С.П.А.М.


01 - P&P - 2:34
02 - Цунамі (by Сергій Коротков) - 0:42
03 - Новина - 3:33
04 - CossacksWay (by Apollo 440) - 0:09
05 - OdesaDubStep - Apollo vs. ТНМК (Фагот mix) - 3:08
06 - Варіанти (by Сергій Жадан) - 0:29
07 - Пливи за буй - 4:07
08 - Тихо (by Єфім Копелян) - 0:12
09 - Проїхали - 4:33
10 - Теодорія (by Сергій Притула) - 1:02
11 - Шоколад - 3:11
12 - Троянди (by Юлія Пєшковська) - 0:25
13 - Останній Натурал - 3:32
14 - ... - 0:06
15 - Чашка - 3:25
16 - Все (by Євген Євстігнєєв та Володимир Осєнєв) - 0:14
17 - Все по 8 грн. - ТНМК feat Іван Дорн - 4:25
18 - Норма (за участі Юрія Горбунова та Сніжани Єгорової) - 4:01
19 - Ліверпуль (by Гоша Арнаутов) - 0:16
20 - Повний Бак - У.Эр.А vs. ТНМК - 4:27
21 - Глінтвейн (by Гоша Арнаутов) - 0:16
22 - Чікаго - 4:20
23 - Тракт (by Гоша Арнаутов) - 0:42
24 - Покоління.mp3 - 3:36
25 - Борщ (by Гоша Арнаутов) - 0:41
26 - Шторм - 3:23
27 - Комісари (by Єфім Копелян) - 0:13
28 - С.П.А.М. - 3:39
29 - Хожу під річкою (by Ігор Пелих) - 0:09
30 - Темно - 4:53
31 - HMR - 4:30
32 - Індіанці - 0:57
33 - День міста - 2:53
34 - Шторм - ТНМК feat Тетяна Зикіна - 3:43
35 - AA - 0:23

Тривалість: 01:18:47
Видавець: Moon records
Мова: українська
EAC Log
Exact Audio Copy V0.99 prebeta 5 from 4. May 2009

Отчёт EAC об извлечении, выполненном 2. декабря 2010, 21:01

ТНМК / С.П.А.М.

Дисковод: Optiarc DVD RW AD-5170A Adapter: 0 ID: 0

Режим чтения : Достоверность
Использование точного потока : Да
Отключение кэша аудио : Да
Использование указателей C2 : Нет

Коррекция смещения при чтении : 48
Способность читать области Lead-in и Lead-out : Нет
Заполнение пропущенных сэмплов тишиной : Да
Удаление блоков с тишиной в начале и конце : Нет
При вычислениях CRC использовались нулевые сэмплы : Да
Интерфейс : Установленный внешний ASPI-интерфейс

Выходной формат : Внутренние WAV-операции
Формат сэмплов : 44.100 Гц; 16 бит; стерео

TOC извлечённого CD

Трек | Старт | Длительность | Начальный сектор | Конечный сектор
---------------------------------------------------------------------
1 | 0:00.00 | 2:33.53 | 0 | 11527
2 | 2:33.53 | 0:41.50 | 11528 | 14652
3 | 3:15.28 | 3:32.58 | 14653 | 30610
4 | 6:48.11 | 0:09.04 | 30611 | 31289
5 | 6:57.15 | 3:07.73 | 31290 | 45387
6 | 10:05.13 | 0:28.55 | 45388 | 47542
7 | 10:33.68 | 4:06.72 | 47543 | 66064
8 | 14:40.65 | 0:12.17 | 66065 | 66981
9 | 14:53.07 | 4:32.50 | 66982 | 87431
10 | 19:25.57 | 1:02.27 | 87432 | 92108
11 | 20:28.09 | 3:11.05 | 92109 | 106438
12 | 23:39.14 | 0:25.37 | 106439 | 108350
13 | 24:04.51 | 3:32.13 | 108351 | 124263
14 | 27:36.64 | 0:05.60 | 124264 | 124698
15 | 27:42.49 | 3:24.62 | 124699 | 140060
16 | 31:07.36 | 0:13.58 | 140061 | 141093
17 | 31:21.19 | 4:25.11 | 141094 | 160979
18 | 35:46.30 | 4:01.27 | 160980 | 179081
19 | 39:47.57 | 0:16.03 | 179082 | 180284
20 | 40:03.60 | 4:26.57 | 180285 | 200291
21 | 44:30.42 | 0:16.09 | 200292 | 201500
22 | 44:46.51 | 4:20.25 | 201501 | 221025
23 | 49:07.01 | 0:41.53 | 221026 | 224153
24 | 49:48.54 | 3:35.49 | 224154 | 240327
25 | 53:24.28 | 0:40.57 | 240328 | 243384
26 | 54:05.10 | 3:23.10 | 243385 | 258619
27 | 57:28.20 | 0:12.46 | 258620 | 259565
28 | 57:40.66 | 3:39.16 | 259566 | 276006
29 | 61:20.07 | 0:08.46 | 276007 | 276652
30 | 61:28.53 | 4:52.71 | 276653 | 298623
31 | 66:21.49 | 4:29.54 | 298624 | 318852
32 | 70:51.28 | 0:57.01 | 318853 | 323128
33 | 71:48.29 | 2:52.66 | 323129 | 336094
34 | 74:41.20 | 3:43.13 | 336095 | 352832
35 | 78:24.33 | 0:22.68 | 352833 | 354550

Характеристики диапазона извлечения и сообщения об ошибках

Выбранный диапазон

Имя файла G:\Lossless\ТНМК - С.П.А.М. (Ukraine MR 5030-2).wav

Пиковый уровень 98.8 %
Качество диапазона 99.9 %
CRC копии 535C522B
Копирование... OK

Ошибок не произошло

Конец отчёта
Audiochecker Log
AUDIOCHECKER v2.0 beta (build 457) - by Dester - [email protected]
~~~~~~~~~~~~~~~~~~~~~~~~~~~~~~~~~~
-=== DO NOT EDIT THIS FILE! ===-

Path: ...\2010 - С.П.А.М

01 -=- 01 - P&P.wav -=- CDDA (100%)
02 -=- 02 - Цунамі (by Сергій Коротков).wav -=- CDDA (100%)
03 -=- 03 - Новина.wav -=- CDDA (100%)
04 -=- 04 - CossacksWay (by Apollo 440).wav -=- CDDA (100%)
05 -=- 05 - OdesaDubStep - Apollo vs. ТНМК (Фагот mix).wav -=- CDDA (58%)
06 -=- 06 - Варіанти (by Сергій Жадан).wav -=- CDDA (100%)
07 -=- 07 - Пливи за буй.wav -=- CDDA (100%)
08 -=- 08 - Тихо (by Єфім Копелян).wav -=- CDDA (100%)
09 -=- 09 - Проїхали.wav -=- CDDA (100%)
10 -=- 10 - Теодорія (by Сергій Притула).wav -=- CDDA (99%)
11 -=- 11 - Шоколад.wav -=- CDDA (100%)
12 -=- 12 - Троянди (by Юлія Пєшковська).wav -=- CDDA (100%)
13 -=- 13 - Останній Натурал.wav -=- CDDA (100%)
14 -=- 14 -.wav -=- CDDA (100%)
15 -=- 15 - Чашка.wav -=- CDDA (100%)
16 -=- 16 - Все (by Євген Євстігнєєв та Володимир Осєнєв).wav -=- CDDA (100%)
17 -=- 17 - Все по 8 грн. - ТНМК feat Іван Дорн.wav -=- CDDA (100%)
18 -=- 18 - Норма (за участі Юрія Горбунова та Сніжани Єгорової).wav -=- CDDA (99%)
19 -=- 19 - Ліверпуль (by Гоша Арнаутов).wav -=- CDDA (100%)
20 -=- 20 - Повний Бак - У.Эр.А vs. ТНМК.wav -=- CDDA (100%)
21 -=- 21 - Глінтвейн (by Гоша Арнаутов).wav -=- CDDA (100%)
22 -=- 22 - Чікаго.wav -=- CDDA (100%)
23 -=- 23 - Тракт (by Гоша Арнаутов).wav -=- CDDA (100%)
24 -=- 24 - Покоління.mp3.wav -=- CDDA (100%)
25 -=- 25 - Борщ (by Гоша Арнаутов).wav -=- CDDA (100%)
26 -=- 26 - Шторм.wav -=- CDDA (100%)
27 -=- 27 - Комісари (by Єфім Копелян).wav -=- CDDA (100%)
28 -=- 28 - С.П.А.М.wav -=- CDDA (100%)
29 -=- 29 - Хожу під річкою (by Ігор Пелих).wav -=- ERROR
30 -=- 30 - Темно.wav -=- CDDA (100%)
31 -=- 31 - HMR.wav -=- CDDA (100%)
32 -=- 32 - Індіанці.wav -=- CDDA (100%)
33 -=- 33 - День міста.wav -=- CDDA (100%)
34 -=- 34 - Шторм - ТНМК feat Тетяна Зикіна.wav -=- CDDA (100%)
35 -=- 35 - AA.wav -=- CDDA (100%)

Summary 98,71% CDDA

1746500
Спецпроекти (перевидання 2006 року)
2004 - Jazzy Live


01 - Заходьте - 0:29
02 - А море де? - 3:44
03 - Ретро - 3:11
04 - ПоRAPалося серце - 5:48
05 - ТІкаю - 6:09
06 - Восени - 5:21
07 - Зроби мені хіп-хоп. 20 років по тому - 5:01
08 - Зачекай - 5:32
09 - По барабану - 3:32
10 - Jazzy - 5:30
11 - Ви ще тут? - 0:37
12 - Freestyle #1 feat Turbo B - 4:54
13 - Freestyle #2 feat Turbo B - 4:34

Тривалість: 00:54:23
Видавець: Moon records
Мова: українська
EAC Log
Exact Audio Copy V0.99 prebeta 4 from 23. January 2008

Отчёт EAC об извлечении, выполненном 16. августа 2009, 20:57

ТНМК & Схід Side / Jazzy Live

Дисковод: Optiarc DVD RW AD-5170A Adapter: 0 ID: 0

Режим чтения : Достоверность
Использование точного потока : Да
Отключение кэша аудио : Да
Использование указателей C2 : Нет

Коррекция смещения при чтении : 48
Способность читать области Lead-in и Lead-out : Нет
Заполнение пропущенных сэмплов тишиной : Да
Удаление блоков с тишиной в начале и конце : Нет
При вычислениях CRC использовались нулевые сэмплы : Да
Интерфейс : Установленный внешний ASPI-интерфейс

Выходной формат : Внутренние WAV-операции
Формат сэмплов : 44.100 Гц; 16 бит; стерео

TOC извлечённого CD

Трек | Старт | Длительность | Начальный сектор | Конечный сектор
---------------------------------------------------------------------
1 | 0:00.00 | 0:29.31 | 0 | 2205
2 | 0:29.31 | 3:43.66 | 2206 | 18996
3 | 4:13.22 | 3:11.19 | 18997 | 33340
4 | 7:24.41 | 5:47.61 | 33341 | 59426
5 | 13:12.27 | 6:09.27 | 59427 | 87128
6 | 19:21.54 | 5:20.59 | 87129 | 111187
7 | 24:42.38 | 5:00.56 | 111188 | 133743
8 | 29:43.19 | 5:32.00 | 133744 | 158643
9 | 35:15.19 | 3:31.66 | 158644 | 174534
10 | 38:47.10 | 5:29.66 | 174535 | 199275
11 | 44:17.01 | 0:37.30 | 199276 | 202080
12 | 44:54.31 | 4:54.13 | 202081 | 224143
13 | 49:48.44 | 4:34.08 | 224144 | 244701

Характеристики диапазона извлечения и сообщения об ошибках

Выбранный диапазон

Имя файла G:\Lossless\ТНМК & Схід Side - Jazzy Live.wav

Пиковый уровень 100.0 %
Качество диапазона 100.0 %
CRC копии 9FEB5A01
Копирование... OK

Ошибок не произошло

Конец отчёта
Audiochecker Log
AUDIOCHECKER v2.0 beta (build 457) - by Dester - [email protected]
~~~~~~~~~~~~~~~~~~~~~~~~~~~~~~~~~~
-=== DO NOT EDIT THIS FILE! ===-

Path: ...\2004 - Jazzy Live

01 -=- 01 - Заходьте.wav -=- CDDA (100%)
02 -=- 02 - А море де.wav -=- CDDA (100%)
03 -=- 03 - Ретро.wav -=- CDDA (100%)
04 -=- 04 - ПоRAPалося серце.wav -=- CDDA (100%)
05 -=- 05 - ТІкаю.wav -=- CDDA (100%)
06 -=- 06 - Восени.wav -=- CDDA (100%)
07 -=- 07 - Зроби мені хіп-хоп. 20 років по тому.wav -=- CDDA (100%)
08 -=- 08 - Зачекай.wav -=- CDDA (100%)
09 -=- 09 - По барабану.wav -=- CDDA (100%)
10 -=- 10 - Jazzy.wav -=- CDDA (100%)
11 -=- 11 - Ви ще тут.wav -=- CDDA (100%)
12 -=- 12 - Freestyle #1 feat Turbo B.wav -=- CDDA (100%)
13 -=- 13 - Freestyle #2 feat Turbo B.wav -=- CDDA (100%)

Summary 100,00% CDDA

180834468
2006 - ReФорматЦія (Limited edition) - потреково


01 - Welcome сюди I - 0:38
02 - Шаровари Max NRG rmx - 3:55
03 - 0:04:00 Алле - 0:04
04 - Дача respect mix by Єгор Олесов - 5:37
05 - Граблі DJ Major rennaissanсe mix - 4:10
06 - Глядіолюси - 0:31
07 - Зачекай by 5nizza feat Forgot-drumzz - 4:12
08 - Утікай - 0:23
09 - Восени Cергій Товстолузький mix - 3:58
10 - Гоша мікс by Діля feat Ярік - 3:35
11 - До пупа - 0:13
12 - ТІкаю Fuck! Submarіne Orchestra rmx - 4:35
13 - люба Люба mix by Юліан Улибін - 3:22
14 - Скажені Бабулі - 0:30
15 - Дулі-Дулі mix by Діля feat Скажені Бабулі - 3:51
16 - Час DJ їв - 0:33
17 - Ретро Funk Not Dead FS rmx - 4:03
18 - Водопляж - 0:16
19 - А море де? Forgot format mix - 4:40
20 - Наливай - 0:13
22 - П'яні Зарази FS variation - 1:29
23 - ЖуПан Forgot angel mix - 4:33
24 - Даня - Аутро - 0:44
25 - 7-40 (скіт by Гоша Арнаутов) - 0:22
26 - Люба Терті DJ's rmx - 4:33
27 - Натер (скіт by Гоша Арнаутов) - 0:17
28 - Мила (Kind of Zero mix) - 6:05
29 - Мами (скіт by Мами) - 1:33
30 - По радіо співали москалі (Jalsomino mix) - 3:32
31 - Рекламний ролік альбому - 0:15

Тривалість: 01:17:00
2008 - ReФорматЦія-2


01 - Інтро (уривок з фільму «Останній бункер») - 0:37
02 - Гранули – Бангі Хеп vs. ТНМК - 2:57
03 - Спайом (Алла Пугачева & Ангеліна Вовк live) - 0:20
04 - Червона Рута – Софія Ротару feat ТНМК - 3:13
05 - Восени – Крихітка Цахес - 3:57
06 - Ані курят (уривок з фільму «За двома зайцями») - 0:24
07 - Моя мама… – ТНМК feat Сергій Сівохо - 3:42
08 - Вовка (уривок з фільму «Кін-Дза-Дза») - 0:09
09 - Мушу йти - Top Studio mix (msk) - 4:29
10 - Немає більшої (skit by ПружиныНет) - 0:13
11 - Сила – ПружиныНет - 3:37
12 - Текст по дебільному - 0:05
13 - Забув - Пара Нормальних - 2:53
14 - Les Poupees - Олег Скрипка - 4:46
15 - Гранули – JALSOMINO mix - 3:31
16 - Садок Вишневий (skit by Гоша Арнаутов) - 0:13
17 - Банзай – GreatФрут - 3:35
18 - Китайською (skit by Катерина Хінкулова & Paul Crook, BBC Live) - 0:20
19 - Іво Бобул – Гуцул Каліпсо - 4:36
20 - Географія (skit by Юрій Горбунов) - 0:24
21 - Молодець - Top Studio mix (msk) - 3:42
22 - Чемпіон (skit by Анатолій Вексклярський) - 0:06
23 - Та Ти Шо – Роллік’с - 3:48
24 - Весілля Барбі (уривок з фільму «Весілля Барбі») - 0:13
25 - Вода - У.эР.А vs. ТНМК - 4:41
26 - Пливе човен – ТНМК, народна - 2:27
27 - Арешт – Марія Бурмака - 4:37
28 - Гранули – qzzaargh mix - Сергій Кузьминський aka Кузя - 4:44

Тривалість: 01:08:19
Видавець: ТОВ "Єнісей Груп"
Мова: українська
EAC Log
Exact Audio Copy V0.99 prebeta 4 from 23. January 2008

Отчёт EAC об извлечении, выполненном 19. июня 2008, 0:53

ТНМК / ReФорматЦія-2

Дисковод: Optiarc DVD RW AD-7173S Adapter: 3 ID: 0

Режим чтения : Достоверность
Использование точного потока : Да
Отключение кэша аудио : Да
Использование указателей C2 : Нет

Коррекция смещения при чтении : 48
Способность читать области Lead-in и Lead-out : Нет
Заполнение пропущенных сэмплов тишиной : Да
Удаление блоков с тишиной в начале и конце : Нет
При вычислениях CRC использовались нулевые сэмплы : Да
Интерфейс : Встроенный Win32-интерфейс для Win NT/2000
Обработка зазоров : Не обнаружено, добавлено к предыдущему треку

Выходной формат : Пользовательский кодировщик
Выбранный битрейт : 768 kBit/s
Качество : Высокий
Добавление ID3-тэга : Нет
Утилита сжатия : C:\Program Files\Exact Audio Copy\\.EXE
Дополнительные параметры : -6 -V -T "ARTIST=%a" -T "TITLE=%t" -T "ALBUM=%g" -T "DATE=%y" -T "TRACKNUMBER=%n" -T "GENRE=%m" -T "COMMENT=%e" %s -o %d

TOC извлечённого CD

Трек | Старт | Длительность | Начальный сектор | Конечный сектор
---------------------------------------------------------------------
1 | 0:00.00 | 0:36.69 | 0 | 2768
2 | 0:36.69 | 2:57.34 | 2769 | 16077
3 | 3:34.28 | 0:19.48 | 16078 | 17550
4 | 3:54.01 | 3:12.44 | 17551 | 31994
5 | 7:06.45 | 3:56.60 | 31995 | 49754
6 | 11:03.30 | 0:23.65 | 49755 | 51544
7 | 11:27.20 | 3:41.71 | 51545 | 68190
8 | 15:09.16 | 0:08.46 | 68191 | 68836
9 | 15:17.62 | 4:29.18 | 68837 | 89029
10 | 19:47.05 | 0:12.73 | 89030 | 90002
11 | 20:00.03 | 3:37.23 | 90003 | 106300
12 | 23:37.26 | 0:04.42 | 106301 | 106642
13 | 23:41.68 | 2:52.49 | 106643 | 119591
14 | 26:34.42 | 4:45.56 | 119592 | 141022
15 | 31:20.23 | 3:31.26 | 141023 | 156873
16 | 34:51.49 | 0:12.57 | 156874 | 157830
17 | 35:04.31 | 3:35.33 | 157831 | 173988
18 | 38:39.64 | 0:19.42 | 173989 | 175455
19 | 38:59.31 | 4:36.35 | 175456 | 196190
20 | 43:35.66 | 0:24.32 | 196191 | 198022
21 | 44:00.23 | 3:42.10 | 198023 | 214682
22 | 47:42.33 | 0:06.06 | 214683 | 215138
23 | 47:48.39 | 3:48.32 | 215139 | 232270
24 | 51:36.71 | 0:12.44 | 232271 | 233214
25 | 51:49.40 | 4:41.21 | 233215 | 254310
26 | 56:30.61 | 2:27.25 | 254311 | 265360
27 | 58:58.11 | 4:36.40 | 265361 | 286100
28 | 63:34.51 | 4:44.26 | 286101 | 307426

Трек 1

Имя файла W:\EAC\01 - Інтро (уривок з фільму «Останній бункер»).wav

Пиковый уровень 80.9 %
Качество трека 100.0 %
CRC копии 3524A869
Копирование... OK

Трек 2

Имя файла W:\EAC\02 - Гранули – Бангі Хеп vs. ТНМК.wav

Пиковый уровень 97.7 %
Качество трека 100.0 %
CRC копии 127B4418
Копирование... OK

Трек 3

Имя файла W:\EAC\03 - Спайом (Алла Пугачева & Ангеліна Вовк live).wav

Пиковый уровень 88.6 %
Качество трека 100.0 %
CRC копии 3272F5C5
Копирование... OK

Трек 4

Имя файла W:\EAC\04 - Червона Рута – Софія Ротару feat ТНМК.wav

Пиковый уровень 97.7 %
Качество трека 99.9 %
CRC копии E06F4D27
Копирование... OK

Трек 5

Имя файла W:\EAC\05 - Восени – Крихітка Цахес.wav

Пиковый уровень 97.7 %
Качество трека 100.0 %
CRC копии 8E03C08C
Копирование... OK

Трек 6

Имя файла W:\EAC\06 - Ані курят (уривок з фільму «За двома зайцями»).wav

Пиковый уровень 93.5 %
Качество трека 100.0 %
CRC копии A2CE7D5B
Копирование... OK

Трек 7

Имя файла W:\EAC\07 - Моя мама… – ТНМК feat Сергій Сівохо.wav

Пиковый уровень 97.7 %
Качество трека 100.0 %
CRC копии C8A582F7
Копирование... OK

Трек 8

Имя файла W:\EAC\08 - Вовка (уривок з фільму «Кін-Дза-Дза»).wav

Пиковый уровень 70.9 %
Качество трека 98.7 %
CRC копии 2F122E06
Копирование... OK

Трек 9

Имя файла W:\EAC\09 - Мушу йти - Top Studio mix (msk).wav

Пиковый уровень 97.7 %
Качество трека 100.0 %
CRC копии ED5897E8
Копирование... OK

Трек 10

Имя файла W:\EAC\10 - Немає більшої (skit by ПружиныНет).wav

Пиковый уровень 97.7 %
Качество трека 99.1 %
CRC копии 0AA525B4
Копирование... OK

Трек 11

Имя файла W:\EAC\11 - Сила – ПружиныНет.wav

Пиковый уровень 97.7 %
Качество трека 100.0 %
CRC копии 29AFFE9F
Копирование... OK

Трек 12

Имя файла W:\EAC\12 - Текст по дебільному.wav

Пиковый уровень 93.2 %
Качество трека 100.0 %
CRC копии FB3B42B7
Копирование... OK

Трек 13

Имя файла W:\EAC\13 - Забув - Пара Нормальних.wav

Пиковый уровень 97.7 %
Качество трека 99.9 %
CRC копии E88F45C3
Копирование... OK

Трек 14

Имя файла W:\EAC\14 - Les Poupees - Олег Скрипка.wav

Пиковый уровень 97.7 %
Качество трека 100.0 %
CRC копии BEA8058B
Копирование... OK

Трек 15

Имя файла W:\EAC\15 - Гранули – JALSOMINO mix.wav

Пиковый уровень 97.7 %
Качество трека 100.0 %
CRC копии 3F80C063
Копирование... OK

Трек 16

Имя файла W:\EAC\16 - Садок Вишневий (skit by Гоша Арнаутов).wav

Пиковый уровень 55.0 %
Качество трека 100.0 %
CRC копии B69F3C67
Копирование... OK

Трек 17

Имя файла W:\EAC\17 - Банзай – GreatФрут.wav

Пиковый уровень 97.7 %
Качество трека 99.0 %
CRC копии CCE440F8
Копирование... OK

Трек 18

Имя файла W:\EAC\18 - Китайською (skit by Катерина Хінкулова & Paul Crook, BBC Live).wav

Пиковый уровень 88.7 %
Качество трека 100.0 %
CRC копии 15E389AF
Копирование... OK

Трек 19

Имя файла W:\EAC\19 - Іво Бобул – Гуцул Каліпсо.wav

Пиковый уровень 97.7 %
Качество трека 100.0 %
CRC копии E5F83E92
Копирование... OK

Трек 20

Имя файла W:\EAC\20 - Географія (skit by Юрій Горбунов).wav

Пиковый уровень 97.2 %
Качество трека 100.0 %
CRC копии B0CA29B8
Копирование... OK

Трек 21

Имя файла W:\EAC\21 - Молодець - Top Studio mix (msk).wav

Пиковый уровень 97.7 %
Качество трека 98.9 %
CRC копии F4C22628
Копирование... OK

Трек 22

Имя файла W:\EAC\22 - Чемпіон (skit by Анатолій Вексклярський).wav

Пиковый уровень 97.7 %
Качество трека 100.0 %
CRC копии 0030A7C6
Копирование... OK

Трек 23

Имя файла W:\EAC\23 - Та Ти Шо – Роллік’с.wav

Пиковый уровень 97.7 %
Качество трека 100.0 %
CRC копии D0C0B225
Копирование... OK

Трек 24

Имя файла W:\EAC\24 - Весілля Барбі (уривок з фільму «Весілля Барбі»).wav

Пиковый уровень 88.2 %
Качество трека 100.0 %
CRC копии 86A953C9
Копирование... OK

Трек 25

Имя файла W:\EAC\25 - Вода - У.эР.А vs. ТНМК.wav

Пиковый уровень 97.7 %
Качество трека 100.0 %
CRC копии DACC809B
Копирование... OK

Трек 26

Имя файла W:\EAC\26 - Пливе човен – ТНМК, народна.wav

Пиковый уровень 97.7 %
Качество трека 100.0 %
CRC копии ECBBC994
Копирование... OK

Трек 27

Имя файла W:\EAC\27 - Арешт – Марія Бурмака.wav

Пиковый уровень 97.7 %
Качество трека 100.0 %
CRC копии B591723A
Копирование... OK

Трек 28

Имя файла W:\EAC\28 - Гранули – qzzaargh mix - Сергій Кузьминський aka Кузя.wav

Пиковый уровень 97.7 %
Качество трека 100.0 %
CRC копии 42B0EFAC
Копирование... OK

Ошибок не произошло

Конец отчёта
Audiochecker Log
AUDIOCHECKER v2.0 beta (build 457) - by Dester - [email protected]
~~~~~~~~~~~~~~~~~~~~~~~~~~~~~~~~~~
-=== DO NOT EDIT THIS FILE! ===-

Path: ...\2008 - ReФорматЦія-2

01 -=- 01 - Інтро (уривок з фільму «Останній бункер»).ape -=- MPEG (89%)
02 -=- 02 - Гранули – Бангі Хеп vs. ТНМК.ape -=- CDDA (99%)
03 -=- 03 - Спайом (Алла Пугачева & Ангеліна Вовк live).ape -=- MPEG (91%)
04 -=- 04 - Червона Рута – Софія Ротару feat ТНМК.ape -=- MPEG (95%)
05 -=- 05 - Восени – Крихітка Цахес.ape -=- CDDA (100%)
06 -=- 06 - Ані курят (уривок з фільму «За двома зайцями»).ape -=- CDDA (58%)
07 -=- 07 - Моя мама… – ТНМК feat Сергій Сівохо.ape -=- CDDA (100%)
08 -=- 08 - Вовка (уривок з фільму «Кін-Дза-Дза»).ape -=- MPEG (95%)
09 -=- 09 - Мушу йти - Top Studio mix (msk).ape -=- CDDA (100%)
10 -=- 10 - Немає більшої (skit by ПружиныНет).ape -=- MPEG (91%)
11 -=- 11 - Сила – ПружиныНет.ape -=- CDDA (100%)
12 -=- 12 - Текст по дебільному.ape -=- MPEG (99%)
13 -=- 13 - Забув - Пара Нормальних.ape -=- CDDA (100%)
14 -=- 14 - Les Poupees - Олег Скрипка.ape -=- CDDA (100%)
15 -=- 15 - Гранули – JALSOMINO mix.ape -=- CDDA (100%)
16 -=- 16 - Садок Вишневий (skit by Гоша Арнаутов).ape -=- CDDA (100%)
17 -=- 17 - Банзай – GreatФрут.ape -=- CDDA (100%)
18 -=- 18 - Китайською (skit by Катерина Хінкулова & Paul Crook, BBC Live).ape -=- MPEG (98%)
19 -=- 19 - Іво Бобул – Гуцул Каліпсо.ape -=- CDDA (99%)
20 -=- 20 - Географія (skit by Юрій Горбунов).ape -=- CDDA (100%)
21 -=- 21 - Молодець - Top Studio mix (msk).ape -=- CDDA (100%)
22 -=- 22 - Чемпіон (skit by Анатолій Вексклярський).ape -=- CDDA (100%)
23 -=- 23 - Та Ти Шо – Роллік’с.ape -=- CDDA (100%)
24 -=- 24 - Весілля Барбі (уривок з фільму «Весілля Барбі»).ape -=- ERROR
25 -=- 25 - Вода - У.эР.А vs. ТНМК.ape -=- CDDA (99%)
26 -=- 26 - Пливе човен – ТНМК, народна.ape -=- CDDA (100%)
27 -=- 27 - Арешт – Марія Бурмака.ape -=- CDDA (100%)
28 -=- 28 - Гранули – qzzaargh mix - Сергій Кузьминський aka Кузя.ape -=- CDDA (99%)

Summary 73,93% CDDA

92371796
2009 - ReФорматЦія-2.2
MP3-реліз доступний на сайті ТНМК для вільного скачування (бітрейт 320 кбіт/сек)
Максі-сингли:
2004 - L'eau


01 - Вода - 4:33
02 - Восени (la vercion fruncaise) - 4:31
03 - Вода (TNMK & Easy Brothers) - 4:21
04 - En Automne (ТНМК & 5nizza) - 3:29
05 - Если мы (ft. Alibi) - 3:12
06 - Вода (la vercion fruncaise) - 4:33
07 - Вода (Instrumental) - 4:33

Тривалість: 00:29:12
Видавець: Без лейблу http://www.tnmk.com/ukr/discography/voda/
Мова: українська, французька
EAC Log
Exact Audio Copy V0.99 prebeta 5 from 4. May 2009

EAC extraction logfile from 18. March 2009, 14:01

Вода / L'eau

Used drive : TSSTcorpCDDVDW SH-S203D Adapter: 2 ID: 0

Read mode : Secure
Utilize accurate stream : Yes
Defeat audio cache : Yes
Make use of C2 pointers : No
Read offset correction : 6

Overread into Lead-In and Lead-Out : No
Fill up missing offset samples with silence : Yes
Delete leading and trailing silent blocks : No
Null samples used in CRC calculations : Yes
Used interface : Installed external ASPI interface
Gap handling : Appended to previous track

...........
Audiochecker Log
AUDIOCHECKER v2.0 beta (build 457) - by Dester - [email protected]
~~~~~~~~~~~~~~~~~~~~~~~~~~~~~~~~~~
-=== DO NOT EDIT THIS FILE! ===-

Path: ...\2004 - Вода - L'eau [Maxi]

1 -=- 01 - Вода. -=- CDDA (100%)
2 -=- 02 - Восени (la vercion fruncaise). -=- CDDA (100%)
3 -=- 03 - Вода (TNMK & Easy Brothers). -=- CDDA (100%)
4 -=- 04 - Вода (la vercion fruncaise ft. 5nizza). -=- CDDA (99%)
5 -=- 05 - Если мы (ft. Alibi). -=- CDDA (100%)
6 -=- 06 - Вода (la vercion fruncaise). -=- CDDA (100%)
7 -=- 07 - Вода (Instrumental). -=- CDDA (100%)

Summary 99,86% CDDA

29208260
2005 - Забув


01 - Забув - 3:30
02 - Ноу Кіпіш - 3:29
03 - ШоПопалоШоу 2005 - 5:38
04 - L'arrestation - 4:26
05 - Арешт Slava Flash mix - 4:35
06 - Забув instrumental - 3:31
07 - Забув acapella - 2:59

Тривалість: 00:28:07
Видавець: Moon records
Мова: українська (01-04, 05, 07), французька (04)
EAC Log
EAC extraction logfile from 24. December 2005, 20:55 for CD
Танок на Майдані Конґо / Забув

Used drive : PLEXTOR DVDR PX-708A Adapter: 1 ID: 0
Read mode : Secure with NO C2, accurate stream, disable cache
Combined read/write offset correction : 0
Overread into Lead-In and Lead-Out : No

Used output format : Internal WAV Routines
44.100 Hz; 16 Bit; Stereo

Other options :
Fill up missing offset samples with silence : Yes
Delete leading and trailing silent blocks : No
Installed external ASPI interface

Range status and errors
Selected range
Filename F:\TNM Kongo\2005. Zabuv\TNM Kongo - Zabuv.wav

Peak level 100.0 %
Range quality 100.0 %
CRC EDE0C2CB
Copy OK

No errors occured

End of status report
Audiochecker Log
AUDIOCHECKER v2.0 beta (build 457) - by Dester - [email protected]
~~~~~~~~~~~~~~~~~~~~~~~~~~~~~~~~~~
-=== DO NOT EDIT THIS FILE! ===-

Path: ...\2005 - Забув (максі-сингл)

1 -=- 01 - Забув.wav -=- CDDA (100%)
2 -=- 02 - Ноу Кіпіш.wav -=- CDDA (100%)
3 -=- 03 - ШоПопалоШоу 2005.wav -=- CDDA (100%)
4 -=- 04 - L'arrestation.wav -=- CDDA (100%)
5 -=- 05 - Арешт Slava Flash mix.wav -=- MPEG (95%)
6 -=- 06 - Забув instrumental.wav -=- CDDA (100%)
7 -=- 07 - Забув acapella.wav -=- CDDA (100%)

Summary 86,43% CDDA

141169908
Data CD

Якість:
кодек: MPEG 1 (VCD)
розмір кадру: 720*576 (4:3)
бітрейт відео 3000 кбіт/сек

Аудіо: мова: українська
кодек: Mpeg-1 audio Layer 2, 44100 кГц
бітрейт: 256 кбіт/сек

TNM Kongo - Zabuv.mpg (Тривалість: 00:03:34)


6 remixes

6 треків в форматі 48000/16 WAV стиснуті мною в APE (~125-800 кбіт/сек)

drums - 3:33
guitar - 3:31
piano - 3:32
strings - 3:29
turntable - 0:18
vocals - 3:05
Тривалість: 11:05:07
Мова: українська (1-9), французька (4, 8)
Аудіо-кодек: APE
Ріп: image+*.cue (EAC Log, audiochecker log), tracks+CUE (спецпроекти)
EAC: Secure + Accurate stream + disable cache/C2 + Read offset correction
Бітрейт: lossless (884-1016 кбіт/с)
Джерело: angusy (torrents.net.ua) - номерні альбоми. na3ar - максі "Забув", LCua - спецпроекти, skryabin-ua - Live, СПАМ

Додаткова інформація:
Танок на майдані Конґо (ТНМК) - найуспішніша хіп-хоп група в Україні. Гурт ТНМК виділяється тим, що його музика - це суміш хіп-хопу, року, фанку та джазу. Унікальна лірика, якісна жива музика, не електронна музика та унікальне поєднання голосів вокалістів створюють неперевершені враження.
ОНОВЛЕНО 22.10.2009
Додано максі-сингл "2005 - Забув"
ОНОВЛЕНО 06.03.2010
Додано спецпроект "2008 - ReФорматЦія-2"
ОНОВЛЕНО 20.05.2010
Додано спецпроект ТНМКонґо & Схід Side "2004 - Jazzy" (Live концерт), джерело - skryabin-ua
Додано бонусне відео до "1998 - Зроби мені хіп-хоп" та "2001 - Нєформат"
ОНОВЛЕНО 08.02.2011
Додано альбом "2010 - С.П.А.М"
Джерело: skryabin_ua


Золотий реліз (завантажене не впливає на рейтинг)
 Трекер:    Зареєстрований   

Завантажити / скачати українську музику



відео для новачків



 Зареєстрований:   2011-02-08 21:17
 Розмір:   4.18 GB 
 Оцінка музики:   9.8/10 (Голосів: 32)
   
ssTAss 
Модератор музики


З нами з: 05.07.08
Востаннє: 24.07.19
Повідомлень: 15195

2009-08-06 11:35  
на жаль, змінив з *перевірено* на *перевіряється* (Конфуціус в нас добрий))) ), поки не отримаю відповіді на пару питань
plyrvt написано:
4 альбоми + 1 спецпроект

бачу 4 альбоми-перевидання і один номерний альбом, а де ж спецпроект?
plyrvt написано:
1998 - Зроби мені хіп-хоп (2004 Astra)

написати (без бонусного відео).. до інших альбомів теж то стосується... та й 1998 рік напевно тут зайвий (в інших перевиданнях теж).. на оф сайті ті альбоми йдуть окремо від номерних.. правда у Вас астрівські диски,а вони вказують мун-рекордівські і з іншим трек-лістом
plyrvt написано:
Нєформат (2004 Astra)

де пісня *Галя*, яка вказана на наліпці яко *нові бонуси*?.. або опис не той, або обкладинка
plyrvt написано:
Пожежі міста Вавілон (2006 Moon records)

в мун рекордівського перевидання вказана інша обкладинка.. та й чомусь трек-ліст теж відрізняється (інф з оф сайту)
plyrvt написано:
Мова: українська

і тут теж ?
09 - Santa said - 0:17
27 - Вода - французька версія - 4:33
і т.д.

plyrvt 
VIP


З нами з: 04.12.08
Востаннє: 22.07.19
Повідомлень: 400

2009-08-06 12:50  
флейм

Цитата:
де пісня *Галя*, яка вказана на наліпці яко *нові бонуси*?.. або опис не той, або обкладинка

на задній обкладинці і відповідно в моєму треклісті - цей трек (це не пісня, це анекдот) називається "Невістка"

Цитата:
а де ж спецпроект?

2006 - ReФорматЦія

http://www.tnmk.com/ukr/discography/

Номерні альбоми
«Сила»
«Пожежі міста Вавілон»
«Нєформат»
«Зроби мені хіп-хоп»

Спеціальні проекти
«ReФорматЦія» (є оригінальне видання 2003 року Moon records, є видання 2006 року limited edition з іншими бонус треками)

Цитата:
написати (без бонусного відео)

тоді це буде суперечити правилам оформлення релізу

Цитата:
та й 1998 рік напевно тут зайвий (в інших перевиданнях теж).

коли додасте офіційне розяснення в правила, що на перевиданнях вказується рік штамповки - тоді видалю реліз (викладати неправильно не буду)

Цитата:
в мун рекордівського перевидання вказана інша обкладинка..

хм, точно cover.jpg поклав обрізаний (в корінь кладу для плеєрів що розуміють artwork 500*500, обрізаний як в оригінальному альбомі краще дивиться), поміняв в оформленні на реальний

Цитата:
та й чомусь трек-ліст теж відрізняється (інф з оф сайту)
скан трекліста
[/
Цитата:
і тут теж ?
09 - Santa said - 0:17
27 - Вода - французька версія - 4:33
і т.д.

в 09 теж, в Вода французька

ssTAss 
Модератор музики


З нами з: 05.07.08
Востаннє: 24.07.19
Повідомлень: 15195

2009-08-06 14:03  
продовження
plyrvt написано:

2006 - ReФорматЦія

http://www.tnmk.com/ukr/discography/

заходили? там 2003 рік та 29 треків
а Ваша *реформатція* то перевидання http://www.tnmk.com/ukr/discography/reformatciya-new/
а взагалі просто б написали (5 альбомів) і справа б вирішилась..
plyrvt написано:
коли додасте офіційне розяснення в правила, що на перевиданнях вказується рік штамповки - тоді видалю реліз (викладати неправильно не буду)

в даному випадку не рік штамповки... заходимо на сайт і в дискографії самі ТНМК розділяють на номерні альбоми, перевидання, спецпроекти і т.д. Отож в перевиданнях вони вказують тільки один рік (яко новий альбом)
і ше, викладені Вами астрівські перевидання не є тими *номерними альбомами*, які вказують ТНМК, отож рік 1998, 2001... треба прибрати
plyrvt написано:
скан трекліста

добре (наштампували різних дисків, а нам тут розбирайся)))) )
plyrvt написано:
в 09 теж

навмисно послухав той "прикол"... ну не почув там української і все...

plyrvt 
VIP


З нами з: 04.12.08
Востаннє: 22.07.19
Повідомлень: 400

2009-10-22 19:37  
Прохання сідерів перекачати торент у зв'язку з оновленням
zulzedd 
Новенький


З нами з: 26.02.10
Востаннє: 09.09.18
Повідомлень: 1

2010-02-26 04:56  
Цитата:
Швидкість мала =( Де ж ви сімьяри

Вибачаюся - все добре. Проблеми з мого боку були =)[/quote]

Wolf1488 
VIP


З нами з: 20.10.09
Востаннє: 29.03.19
Повідомлень: 429

2010-03-07 11:49  
plyrvt, дякую за реліз.
*невпевнено*А чому не додаси реформація 2.2?

plyrvt 
VIP


З нами з: 04.12.08
Востаннє: 22.07.19
Повідомлень: 400

2010-03-07 13:23  
Wolf1488 написано:
А чому не додаси реформація 2.2?

наскільки мені відомо, такого диска не існує, альбом "ReФорматЦія 2.2" поширювався ексклюзивно через djuice в форматі mp3, а зараз доступний на сайті ТНМК для вільного скачування в [email protected]

plyrvt 
VIP


З нами з: 04.12.08
Востаннє: 22.07.19
Повідомлень: 400

2010-05-20 21:11  
Прохання до сідерів перекачати у зв'язку з оновленням
a_av 
Новенький


З нами з: 05.04.10
Востаннє: 26.05.19
Повідомлень: 11

2010-07-03 18:01  
Новий сінгл з піснею "Проїхали" буде?
ssTAss 
Модератор музики


З нами з: 05.07.08
Востаннє: 24.07.19
Повідомлень: 15195

2010-07-03 18:35  
a_av написано:
Новий сінгл з піснею "Проїхали" буде?

в мр3 так... в лузлес - навряд чи (поки)
Цитата:
До дискографії додано максі-сингл «Проїхали». Він випущений не для продажу, тому чекайте на вільну закачку

Skifstriy 
Частий відвідувач


З нами з: 13.12.09
Востаннє: 22.07.19
Повідомлень: 48

2010-11-19 23:23  
найкраща група України, як на мене
вже купив їх альбом "Сила", потроха куплю і решту

plyrvt 
VIP


З нами з: 04.12.08
Востаннє: 22.07.19
Повідомлень: 400

2011-02-18 12:38  
Прохання до сідерів перекачати у зв'язку з оновленням
ToxaViking 
Відео Гуртом - субтитрування
Відео Гуртом - субтитрування


З нами з: 01.07.09
Востаннє: 24.07.19
Повідомлень: 276

2011-03-25 12:47  
а як його на плеєр заганити? воно ж не в мп3
plyrvt 
VIP


З нами з: 04.12.08
Востаннє: 22.07.19
Повідомлень: 400

2011-03-25 12:55  
paparazzza 
Новенький


З нами з: 24.03.11
Востаннє: 20.07.19
Повідомлень: 3

2011-04-06 10:58  
Пыдкажіть, будь ласка, а я як викачати один альбом? а не всю дискографію

Додано через 23 хвилини 8 секунд:

питання знято, розібрався)

ssTAss 
Модератор музики


З нами з: 05.07.08
Востаннє: 24.07.19
Повідомлень: 15195

2011-06-09 00:29  
plyrvt-е, не хочете додати ще альбом з серії "Рок легенди України"?
http://www.toloka.to/t15311?spmode=full&dl=names

lasmen 
VIP


З нами з: 09.12.11
Востаннє: 11.08.13
Повідомлень: 618

2012-03-13 21:50  
Цитата:
Тривалість: 11:05:07
ого. Стільки багато.
poman11999 
Новенький


З нами з: 03.06.15
Востаннє: 15.07.15
Повідомлень: 1

2015-07-15 10:44  
Будь ласка, станьте на роздачу!!!
ssTAss 
Модератор музики


З нами з: 05.07.08
Востаннє: 24.07.19
Повідомлень: 15195

2017-07-19 15:37  
Цитата:
Роман Кушнарьов

Фоззі написав книжку. Російською. Я б і не туди, але в стрічці вигулькнуло запрошення на презентацію у когось із друзів. Ну, а мене чорт смикнув поставити цілком логічне запитання під тим запрошенням: "А для чого було писати цю книжку російською? Для кого вона? Кому потрібна?" Друг мені відповів: "Мені, українськомовному хлопаці з Харкова, вона потрібна". Певно був під враженням, що коментувати до нього прийшов якийсь західняк з машингвером під пахвою. Кажу: "Так я теж з Харкова. Теж українськомовний. І нам, звісно ж, дуже не вистачає російськомовної літератури тут у Харкові." Друг якось знітився й потер мої коментарі. Бо, либонь, не канонічно.

Я б уже й забув про це, але тут у стрічці з'явився допис від самого Фоззі із запрошенням на презентацію. Мій чорт, який смикнув мене у четвертому реченні, вже навіть не напружувався, бо я сам зробив за нього всю роботу: поліз спитати, чи буде переклад українською. "Ні, не буде," - відповів Фоззі. "Чому?" - не вгавав печерний націоналіст Роман. "Ну, бо пропонували або так, або так," - була відповідь. І дивним чином співак, що співає українською мовою в Україні, обрав "або так". Десь би в Польщі чи Чехії відверто б здивувалися такому вибору місцевого співака на користь, скажімо, німецької мови і прийшли б не з поодиноким запитанням, а масово так. Але що там ті поляки з чехами розуміють в об'єднанні нації. Не те, що ми - українці.

Але мене вчепила навіть не відповідь Фоззі. Ні, тут було інше. Я подивився на свої коментарі очима харківців, які прийшли мене переконувати, що я "пєрєґібаю", "раздєляю", що є "харькавскій язик" (який дивним чином нагадує говірку російської мови, але - тсссс! - нікому-нікому, ви шо!), що "абразованиє люді прачітают". Я перечитав свій коментар і зрозумів, що в їхніх очах я дійсно страшенний націоналіст, майже Шухевич чи (шепотом) Бандера, а дехто ж мене пам'ятає російськомовним і досі, певно, сприймає мою принципово українську як бзик. Бо "язик же нє вінават!"

Я, по суті глобаліст з України, за просте питання "а чому не буде перекладу українською" перетворююся в очах харківського обивателя в страшного націоналіста, який буде зараз катувати їх бентегою й паляницею. Моє питання було єдиним такого штибу. Решта просто захопливо раділи новій книжці російською мовою (в тому числі й українськомовні) від українського виконавця, який співає українською. Я безцеремонно вдерся в цей ламповий світ богеми з базовими поясненнями творення нації і держави в період війни за незалежність.

Тут же так тихо і спокійно. А ненавидіти Путіна можна і російською. Чьо ти лєзєш са сваєй мовай? Нєабразований шолє?

Ваш часовий пояс: GMT + 2 Години

Нова тема   Відповісти