Висота ''Жовтневий''. Остання висота - Altitude ''October Palace''. Last altitude (2015) 720p

Нові коментарі

Нова тема   Відповісти
Автор Повідомлення
vova2804 
Поважний учасник


З нами з: 16.02.13
Востаннє: 11.12.17
Повідомлень: 165

2015-05-11 20:57  
Висота ''Жовтневий''. Остання висота - Altitude ''October Palace''. Last altitude (2015) 720p

Висота ''Жовтневий''. Остання висота - Altitude ''October Palace''. Last altitude (2015) 720p


Жанр: документальний, історичний, трагедія
Країна: Україна

Сюжет:
Посекундна відеореконструкція розстрілу Небесної сотні

08:56 - 09:07 – Перший прорив
09:00 - 09:01 – Висадка озброєного спецпідрозділу із жовтими пов’язками
09:11 - 09:16 – Розстріл над квітковим годинником
09:20 - 10:38 – Другий прорив
09:35 - 11:00, 11:09 - 11:14 – Радіоперехоплення групи снайперів «Мирона»
11:32 - 11:34 – Радіоперехоплення невідомої групи


Тривалість: 02:44:36
Якість:
Відео:
кодек:
розмір кадру: 1280 х 720
бітрейт: 5000 кб/с

Аудіо:
мова: українська, російська
кодек: 2.0
бітрейт: 191 кб/с
Скріншоти







Info
File size : 3.6 GiB
Duration : 2h 44mn
Overall bit rate : 5000 Kbps
Encoded date : UTC 2015-02-20 19:05:33
Tagged date : UTC 2015-02-20 19:05:33

Video
ID : 1
Format : AVC
Format/Info : Advanced Video Codec
Format profile : [email protected]
Format settings, CABAC : Yes
Format settings, ReFrames : 2 frames
Codec ID : avc1
Codec ID/Info : Advanced Video Coding
Duration : 2h 44mn
Bit rate mode : Constant
Bit rate : 5000 Kbps
Width : 1 280 pixels
Height : 720 pixels
Display aspect ratio : 16:9
Frame rate mode : Variable
Color space : YUV
Chroma subsampling : 4:2:0
Bit depth : 8 bits
Scan type : Progressive
Stream size : 3.6 GiB (96%)
Encoded date : UTC 2015-02-20 19:05:33
Tagged date : UTC 2015-02-20 19:05:33
Джерело:
Особиста оцінка: 10 - без зайвих вагань рекомендую всім!


Золотий реліз (завантажене не впливає на рейтинг)
 Трекер:    Зареєстрований   

Завантажити / скачати український фільм



відео для новачків



 Зареєстрований:   2015-05-11 20:57
 Розмір:   3.63 GB 
 Оцінка:   10/10 (Голосів: 5)
   
smak2001 
VIP


З нами з: 06.09.09
Востаннє: 10.12.17
Повідомлень: 461

2015-05-11 21:23  
vova2804
А чому не захотіли в максимальні якості зробити?
"тиць"
File size : 10.8 GiB
Duration : 2h 44mn
Overall bit rate : 9 370 Kbps
Encoded date : UTC 2015-02-20 19:05:33
Tagged date : UTC 2015-02-20 19:05:33

Video
ID : 1
Format : AVC
Format/Info : Advanced Video Codec
Format profile : [email protected]
Format settings, CABAC : Yes
Format settings, ReFrames : 2 frames
Codec ID : avc1
Codec ID/Info : Advanced Video Coding
Duration : 2h 44mn
Bit rate mode : Constant
Bit rate : 8 993 Kbps
Width : 2 048 pixels
Height : 1 152 pixels
Display aspect ratio : 16:9
Frame rate mode : Variable
Color space : YUV
Chroma subsampling : 4:2:0
Bit depth : 8 bits
Scan type : Progressive
Stream size : 10.3 GiB (96%)
Encoded date : UTC 2015-02-20 19:05:33
Tagged date : UTC 2015-02-20 19:05:33

vova2804 
Поважний учасник


З нами з: 16.02.13
Востаннє: 11.12.17
Повідомлень: 165

2015-05-11 21:29  
smak2001 написано:
А чому не захотіли в максимальні якості зробити?

звідки Ви цю інформацію витягнули? для мене такої якості достатньо, тим більше зважаючи на розмір 3,5 Гб. Якщо Ви можете, зробіть, будь ласка, реліз з максимальною якістю, думаю багато хто схоче скачати це відео ще з якіснішими параметрами!

Konfucius 
Управління
Управління


З нами з: 30.09.07
Востаннє: 12.12.17
Повідомлень: 5004

2015-05-13 16:06  
Бракує Info.
Ваш часовий пояс: GMT + 2 Години

Нова тема   Відповісти