Горянин: У пошуках помсти / Highlander: The search for vengeance (2008) Eng/Jap | Ukr/Eng/Jap

Нові коментарі

Нова тема   Відповісти
Автор Повідомлення
Час_настал 
VIP


З нами з: 01.07.10
Востаннє: 19.08.17
Повідомлень: 297

2015-05-09 17:48  
Горянин: У пошуках помсти / Highlander: The search for vengeance (2008) Eng/Jap | Ukr/Eng/Jap

Горянин: У пошуках помсти / Highlander: The search for vengeance (2008) Eng/Jap | Ukr/Eng/Jap


Жанр: анімація, пригодницький, фантастика
Країна: Японія



Кінокомпанія: Madhouse Imagi Animation Studios
Режисер: Йошіякі Каваджірі
Актори: Алістер Абелл, Скот МакНейл, Джаніс Джод та інші

Сюжет:
Недалеке майбутнє. Протистояння безсмертних все ще триває. Залишиться лише один...

P.S. Субтитри створювалися під англомовну звукову доріжку, але можна дивитися і з япономовною, окрім тої де коментарі режисера. Слово "quickening" я переклав як вишвидшення, оскільки "прискорення" мені особисто не подобається, занадто схоже на кальку з рос. "ускорение". З іншого боку "вишвидшення" - це як вивільнення додаткової швидкості та й корінь "швидкість", а не "скорость".


Тривалість: 01:36:48
Якість:
Відео:
кодек:
розмір кадру: 720 х 480
бітрейт: 1725 кб/с

Аудіо # 1:
мова: англійська
переклад: професійний дубльований
кодек: 5.1
бітрейт: 384 кб/с

Аудіо # 2:
мова: японська
переклад: оригінал
кодек: 5.1
бітрейт: 384 кб/с

Аудіо # 3:
мова: японська
переклад: багатоголосий закадровий
кодек: 5.1
бітрейт: 192 кб/с

Субтитри:
мова: англійська
тип: вбудовані (жорсткі)
формат: *.ass

Субтитри:
мова: японська
тип: вбудовані (жорсткі)
формат: *.ass

Субтитри:
мова: японська
тип: вбудовані (жорсткі)
формат: *.ass

Субтитри:
мова: українська
тип: програмні (м'які)
формат: *.srt
Info
Горянин_У пошуках помсти/Горянин_У пошуках помсти.

Format :
Format version : Version 2
File size : 1.85 GiB
Duration : 1h 36mn
Overall bit rate : 2 739 Kbps
Movie name : [BluDragon]
Encoded date : UTC 2011-02-22 13:19:55
Writing application : mkvmerge v3.4.0 ('Rapunzel') built on May 15 2010 09:38:20
Writing library : libebml v0.8.0 + libmatroska v0.9.0

Video
ID : 1
Format : AVC
Format/Info : Advanced Video Codec
Format profile : [email protected]
Format settings, CABAC : Yes
Format settings, ReFrames : 4 frames
Codec ID : V_MPEG4/ISO/AVC
Duration : 1h 36mn
Bit rate : 1 725 Kbps
Width : 720 pixels
Height : 480 pixels
Display aspect ratio : 16:9
Original display aspect ratio : 3:2
Frame rate mode : Constant
Frame rate : 23.976 fps
Standard : NTSC
Color space : YUV
Chroma subsampling : 4:2:0
Bit depth : 8 bits
Scan type : Progressive
Bits/(Pixel*Frame) : 0.208
Stream size : 1.17 GiB (63%)
Title : Highlander: The Search for Vengeance [Director's Cut]
Writing library : core 112 r1867 22bfd31
Encoding settings : cabac=1 / ref=4 / deblock=1:1:2 / analyse=0x3:0x113 / me=umh / subme=10 / psy=1 / psy_rd=1.00:0.00 / mixed_ref=1 / me_range=16 / chroma_me=1 / trellis=2 / 8x8dct=1 / cqm=0 / deadzone=21,11 / fast_pskip=1 / chroma_qp_offset=-2 / threads=6 / sliced_threads=0 / nr=0 / decimate=0 / interlaced=0 / constrained_intra=0 / bframes=3 / b_pyramid=2 / b_adapt=1 / b_bias=0 / direct=3 / weightb=1 / open_gop=0 / weightp=2 / keyint=250 / keyint_min=23 / scenecut=40 / intra_refresh=0 / rc_lookahead=40 / rc=crf / mbtree=1 / crf=14.0 / qcomp=0.60 / qpmin=10 / qpmax=51 / qpstep=4 / vbv_maxrate=38000 / vbv_bufsize=30000 / crf_max=0.0 / nal_hrd=none / ip_ratio=1.40 / aq=1:1.00
Language : Japanese
Default : Yes
Forced : No

Audio #1
ID : 2
Format : AC-3
Format/Info : Audio Coding 3
Mode extension : CM (complete main)
Format settings, Endianness : Big
Codec ID : A_AC3
Duration : 1h 36mn
Bit rate mode : Constant
Bit rate : 384 Kbps
Channel(s) : 6 channels
Channel positions : Front: L C R, Side: L R, LFE
Sampling rate : 48.0 KHz
Bit depth : 16 bits
Compression mode : Lossy
Stream size : 266 MiB (14%)
Title : Dolby Digital 5.1
Language : English
Default : Yes
Forced : No

Audio #2
ID : 3
Format : AC-3
Format/Info : Audio Coding 3
Mode extension : CM (complete main)
Format settings, Endianness : Big
Codec ID : A_AC3
Duration : 1h 36mn
Bit rate mode : Constant
Bit rate : 384 Kbps
Channel(s) : 6 channels
Channel positions : Front: L C R, Side: L R, LFE
Sampling rate : 48.0 KHz
Bit depth : 16 bits
Compression mode : Lossy
Stream size : 266 MiB (14%)
Title : Dolby Digital 5.1
Language : Japanese
Default : No
Forced : No

Audio #3
ID : 4
Format : AC-3
Format/Info : Audio Coding 3
Mode extension : CM (complete main)
Format settings, Endianness : Big
Codec ID : A_AC3
Duration : 1h 36mn
Bit rate mode : Constant
Bit rate : 192 Kbps
Channel(s) : 2 channels
Channel positions : Front: L R
Sampling rate : 48.0 KHz
Bit depth : 16 bits
Compression mode : Lossy
Stream size : 133 MiB (7%)
Title : Dolby Digital 2.0 [Audio Commentary with Kawajiri]
Language : Japanese
Default : No
Forced : No

Text #1
ID : 5
Format : UTF-8
Codec ID : S_TEXT/UTF8
Codec ID/Info : UTF-8 Plain Text
Title : SRT: Dialogue [CatSoup]
Language : English
Default : No
Forced : No

Text #2
ID : 6
Format : VobSub
Muxing mode : zlib
Codec ID : S_VOBSUB
Codec ID/Info : Picture based subtitle format used on DVDs
Title : VobSub: Dialogue
Language : Japanese
Default : No
Forced : No

Text #3
ID : 7
Format : VobSub
Muxing mode : zlib
Codec ID : S_VOBSUB
Codec ID/Info : Picture based subtitle format used on DVDs
Title : VobSub: Dialogue
Language : Japanese
Default : No
Forced : No
Скріншоти


Джерело:
Особиста оцінка: 10 - без зайвих вагань рекомендую всім!


 Трекер:    Зареєстрований   

Завантажити / скачати аніме українською



відео для новачків



 Зареєстрований:   2015-05-09 17:48
 Розмір:   1.85 GB 
 Оцінка аніме:   10/10 (Голосів: 5)
   
ImfromUkraine 
VIP


З нами з: 18.02.12
Востаннє: 20.08.17
Повідомлень: 289

2015-05-12 14:04  
є десь альтернативне посилання? у мене айпі не виділений, один-два сідери не завжди можуть мені роздати... третій день 0% стоїть
Час_настал 
VIP


З нами з: 01.07.10
Востаннє: 19.08.17
Повідомлень: 297

2015-05-12 15:51  
Сідер поки що лише один - це я. Скажи мені час, коли ти у мережі будеш, і я спеціально для тебе на роздачу зайду.
ImfromUkraine 
VIP


З нами з: 18.02.12
Востаннє: 20.08.17
Повідомлень: 289

2015-05-12 23:39  
Час_настал
та я ж кажу, не качає торрент, треба хтось ще на роздачу) у мене інет такий, у деяких просто не можу вантажити... не бачить сідерів

завантажив, дякі

Ваш часовий пояс: GMT + 2 Години

Нова тема   Відповісти