Мармеладки / Jiw Jiws (2014) 720p Wel | Sub Ukr

Нові коментарі

Нова тема   Відповісти
Автор Повідомлення
wolesj 
VIP


З нами з: 15.07.12
Востаннє: 25.01.20
Повідомлень: 755

2015-05-03 22:23  
Мармеладки / Jiw Jiws (2014) 720p Wel | Sub Ukr

Мармеладки / Jiw Jiws (2014) 720p Wel | Sub Ukr


Жанр: драма, сімейний
Країна: Велика Британія / Уельс

Кінокомпанія: It’s my shout/S4C
Режисер: Роджер Бернелл
Актори: Беті Вотсон, Деві Вайкс, Емер Робертс та Ерін Джоунз

Сюжет:
Групу школярів заставили відвідати будинок для перестарілих, що справило на них доволі гнітюче враження. Але для Х'ю це стало початком великої пригоди...
Досить незвичне поєднання акторів-дебютантів: 99 і 12 років.

Тривалість: 00:10:32
Якість:
Відео:
кодек:
розмір кадру: 1280x720
бітрейт: 2024 кб/с

Аудіо:
мова: валлійська (кімрська)
переклад: оригінал
кодек: 2.0
бітрейт: 192 кб/с

Субтитри:
мова: українська (власний переклад з англійської)
тип: програмні (м'які)
формат: *.srt

Субтитри:
мова: англійська
тип: вбудовані (жорсткі)
Info
Complete name : D: JiwJiws (2014) 1080 [Sub Ukr]\JiwJiws (2014) 1080 [Sub Ukr].mp4
Format : MPEG-4
Format profile : Base Media / Version 2
Codec ID : mp42
File size : 167 MiB
Duration : 10mn 32s
Overall bit rate : 2 219 Kbps
Encoded date : UTC 2015-04-16 21:50:05
Tagged date : UTC 2015-04-16 21:50:05
gsst : 0
gstd : 632951
gssd : B4A7DD105HH1429300539777127
gshh : r5---sn-5hn7su7e.googlevideo.com

Video
Format : AVC
Format/Info : Advanced Video Codec
Format profile : [email protected]
Format settings, CABAC : Yes
Format settings, ReFrames : 1 frame
Codec ID : avc1
Codec ID/Info : Advanced Video Coding
Duration : 10mn 32s
Bit rate mode : Variable
Bit rate : 2 024 Kbps
Maximum bit rate : 7 011 Kbps
Width : 1 280 pixels
Height : 720 pixels
Display aspect ratio : 16/9
Frame rate mode : Variable
Frame rate : 25.000 fps
Resolution : 24 bits
Colorimetry : 4:2:0
Scan type : Progressive
Bits/(Pixel*Frame) : 0.088
Stream size : 153 MiB (91%)
Encoded date : UTC 1970-01-01 00:00:00
Tagged date : UTC 2015-04-16 21:50:10

Audio
Format :
Format/Info : Advanced Audio Codec
Format version : Version 4
Format profile : LC
Format settings, SBR : No
Codec ID : 40
Duration : 10mn 32s
Bit rate mode : Variable
Bit rate : 192 Kbps
Maximum bit rate : 201 Kbps
Channel(s) : 2 channels
Channel positions : L R
Sampling rate : 44.1 KHz
Resolution : 16 bits
Stream size : 14.5 MiB (9%)
Title : IsoMedia File Produced by Google, 5-11-2011
Language : English
Encoded date : UTC 2015-04-16 21:50:08
Tagged date : UTC 2015-04-16 21:50:10


Джерело: YouTube
Особиста оцінка: 10 - без зайвих вагань рекомендую всім!
ДЯКУЮ ЗА ПІДТРИМКУ РОЗДАЧІ!


Золотий реліз (завантажене не впливає на рейтинг)
 Трекер:    Зареєстрований   

Завантажити / скачати фільм українською



відео для новачків



 Зареєстрований:   2015-05-03 22:23
 Розмір:   167 MB 
 Оцінка фільму:   10/10 (Голосів: 2)
   
Ваш часовий пояс: GMT + 2 Години

Нова тема   Відповісти