Чорний янгол (Темний ангел, Я прийшов з миром, I Come in Peace) / Dark Angel (1990) 2xUkr/Eng | Sub Eng

Нові коментарі

Нова тема   Відповісти
Автор Повідомлення
Anonymous 







2015-05-03 15:44  
Чорний янгол / Темний ангел / Я прийшов з миром / Dark Angel / I Come in Peace (1990) 2xUkr/Eng | Sub Eng



Альтернативні постери










повнорозмірні зображення відкриються по кліку (з натиснутим CTRL чи кліком середньою кнопкою мишки - у іншій вкладці)


Жанр: бойовик, фантастика, трилер, драма, кримінальний, жахи
Країна: США



Кінокомпанія: Vision PDG, Epic Productions, Epic Productions, Trans World Entertainment (TWE), Vision International
Режисер: Крейг Р. Бакслі / Craig R. Baxley
Актори: Дольф Лундгрен / Dolph Lundgren, Брайан Бенбен / Brian Benben, Бетсі Брентлі / Betsy Brantley, Девід Ейкройд / David Ackroyd, Матіас Х'юз / Matthias Hues, Джей Білас / Jay Bilas, Джим Гейні / Jim Haynie та інші

Сюжет:
Під час операції по затриманню наркоторговців поліцейський Джек Кейн (Дольф Лундгрен) втрачає напарника і починає розслідування серії дивних смертей - жертви гинуть від неймовірно великої дози героїну, хоча ніколи не були наркоманами.

Разом з новим напарником, приставленим до нього пихатим фбрівцем, Джек приходять до дивовижного висновку: вбивця ніхто інший, як інопланетний злочинець, що полює за ідеальним наркотиком - ендорфіном, який викачує зі своїх жертв. Але чи зможе людина перемогти прибульця?
Цікаві факти про фільм

• Маттіасу Х'юзу, що зіграв "поганого" прибульця, довелося виконувати всі трюки самостійно, оскільки не знайшлося каскадерів такого ж великого зросту.
• В американський прокат картина вийшла під назвою "Я прийшов з миром", щоб не виникло плутанини зі старим фільмом з однойменною назвою.
• На ранніх етапах створення сценарію, фільм мав бути комедією.
• Спочатку планувалося, що Дольф Лундгрен зіграє роль "поганого" Прибульця.
• Маттіас Х'юз носив спеціальні платформи, які робили його вище, кожна важила 20 фунтів.
• Ця стрічка є однією з улюблених у Стівена Кінга.
• Пістолет прибульця - це модифікований Calico M950.
• Сценарій редагував Девід Кепп.
• Перша (робоча) назва - "Смертельний контракт (Lethal Contact).
• Фільм був у міжнародному прокаті під назвою Темний ангел (Dark Angel). У США у прокаті була інша назва - Я прийшов з миром (I Come in Peace).

Рейтинг MPAA: R - особам до 17 років обов'язкова присутність батьків або дорослого опікуна
Вікова категорія: 16+

Тривалість: 01:31:57
Якість:
Відео:
кодек:
розмір кадру: 704 х 400
бітрейт: 1866 кб/с

Аудіо # 1:
мова: українська
переклад: двоголосий закадровий
кодек: 2.0
бітрейт: 192 кб/с
примітка: назву озвучено "Чорний янгол"

Аудіо # 2:
мова: українська
переклад: двоголосий закадровий
кодек: 2.0
бітрейт: 192 кб/с
примітка: назву озвучено "Я прийшов з миром"

Аудіо # 3:
мова: англійська
переклад: оригінал
кодек: 5.1
бітрейт: 448 кб/с

Субтитри: (завантажити окремо)
мова: англійська
тип: програмні (м'які)
формат: *.srt
Info
Код:
General
Complete name               : Dark Angel (I Come in Peace) (1990) [2xUkr,Eng] [Hurtom].avi
Format                      : AVI
Format/Info                 : Audio Video Interleave
File size                   : 1.75 GiB
Duration                    : 1 h 31 min
Overall bit rate            : 2 717 kb/s
Movie name                  : Чорний янгол / Темний ангел / Я прийшов з миром / Dark Angel / I Come in Peace (1990)
Genre                       : бойовик, фантастика, трилер, драма, кримінальний, жахи
Recorded date               : 06.07.2018
Writing application         : VirtualDubModUkr 1.5.10.2 (build 2542/release)
Writing library             : VirtualDubMod build 2542/release
Comment                     : https://toloka.to/t65457

Video
ID                          : 0
Format                      : MPEG-4 Visual
Format profile              : Advanced [email protected]
Format settings             : BVOP1 / Custom Matrix
Format settings, BVOP       : 1
Format settings, QPel       : No
Format settings, GMC        : No warppoints
Format settings, Matrix     : Custom
Codec ID                    :
Codec ID/Hint               :
Duration                    : 1 h 31 min
Bit rate                    : 1 866 kb/s
Width                       : 704 pixels
Height                      : 400 pixels
Display aspect ratio        : 16:9
Frame rate                  : 23.976 (24000/1001) FPS
Color space                 : YUV
Chroma subsampling          : 4:2:0
Bit depth                   : 8 bits
Scan type                   : Progressive
Compression mode            : Lossy
Bits/(Pixel*Frame)          : 0.276
Stream size                 : 1.20 GiB (69%)
Writing library             : 73

Audio #1
ID                          : 1
Format                      : AC-3
Format/Info                 : Audio Coding 3
Codec ID                    : 2000
Duration                    : 1 h 31 min
Bit rate mode               : Constant
Bit rate                    : 192 kb/s
Channel(s)                  : 2 channels
Channel positions           : Front: L R
Sampling rate               : 48.0 kHz
Frame rate                  : 31.250 FPS (1536 SPF)
Bit depth                   : 16 bits
Compression mode            : Lossy
Stream size                 : 126 MiB (7%)
Alignment                   : Split accross interleaves
Interleave, duration        : 42  ms (1.00 video frame)
Interleave, preload duratio : 500  ms
Title                       : UKR MVO [ICTV 06.07.2018 18 kHz]
Service kind                : Complete Main

Audio #2
ID                          : 2
Format                      : AC-3
Format/Info                 : Audio Coding 3
Codec ID                    : 2000
Duration                    : 1 h 31 min
Bit rate mode               : Constant
Bit rate                    : 192 kb/s
Channel(s)                  : 2 channels
Channel positions           : Front: L R
Sampling rate               : 48.0 kHz
Frame rate                  : 31.250 FPS (1536 SPF)
Bit depth                   : 16 bits
Compression mode            : Lossy
Stream size                 : 126 MiB (7%)
Alignment                   : Split accross interleaves
Interleave, duration        : 42  ms (1.00 video frame)
Interleave, preload duratio : 500  ms
Title                       : UKR DVO [1+1] 06.07.2010 JACKUS, olgaya
Service kind                : Complete Main

Audio #3
ID                          : 3
Format                      : AC-3
Format/Info                 : Audio Coding 3
Codec ID                    : 2000
Duration                    : 1 h 31 min
Bit rate mode               : Constant
Bit rate                    : 448 kb/s
Channel(s)                  : 6 channels
Channel positions           : Front: L C R, Side: L R, LFE
Sampling rate               : 48.0 kHz
Frame rate                  : 31.250 FPS (1536 SPF)
Bit depth                   : 16 bits
Compression mode            : Lossy
Stream size                 : 295 MiB (16%)
Alignment                   : Split accross interleaves
Interleave, duration        : 42  ms (1.00 video frame)
Interleave, preload duratio : 500  ms
Service kind                : Complete Main




Джерела та подяки: &
ріп відео - dalemake (рутрекер); українські доріжки - 1) Bohdan237 запис з ТБ, Arsenfpu - синхронізація; 2) olgaya - запис з ТБ, JACKUS - синхронізація; українізований постер - gig_Panas (всі - Гуртом).

Особиста оцінка: 8 - мені сподобалося

16.07.2018 реліз оновлено - додано озвучення з


ЗАЛИШАЙТЕСЬ ЯКОМОГА ДОВШЕ НА РОЗДАЧІ!

ЗАВАНТАЖИВ САМ - ДАЙ ЗАВАНТАЖИТИ ІНШИМ


Срібний реліз (на рейтинг впливає 50% завантаженого)
 Трекер:    Зареєстрований   

Завантажити / скачати фільм українською



відео для новачків



 Зареєстрований:   2018-07-16 15:55
 Розмір:   1.75 GB 
 Оцінка фільму:   6.3/10 (Голосів: 27)
   
Anonymous 







2015-05-03 15:58  
Стрічка має кілька назв: офіційна міжнародна "Dark Angel" (Темний ангел, Чорний ангел, Ангел пітьми) та американська "I Come in Peace" ("Я прийшов з миром", саме так і озвучено тут).
Також є плутанина з роком виходу фільму: IMDB пише 1990, а в самому фільмі вказано 1989 рік.

robotron005 
Відео Гуртом - фільмокрай
Відео Гуртом - фільмокрай


З нами з: 29.01.09
Востаннє: 17.11.18
Повідомлень: 3126

2015-05-03 17:50  
igor911 написано:
IMDB пише 1990, а в самому фільмі вказано 1989 рік.


чом ніякий не вказано?

Шкода немає старого озвучення студії 1+1.

Anonymous 







2015-05-03 17:52  
виправив
medved666 
Свій


З нами з: 11.04.15
Востаннє: 22.08.18
Повідомлень: 88

2015-05-05 00:44  
Я теж сумую по багатьом фільмам з озв. 1+1 Happy
Andrew Kovinsky 
Новенький


З нами з: 22.02.13
Востаннє: 02.09.18
Повідомлень: 11

2015-10-28 14:10  
igor911 написано:
Шкода немає старого озвучення студії 1+1.

Ну от, щасливого різдва, трясця твоїй матері! Happy
Де знайти цю чудову версію?

Anonymous 







2015-10-28 15:14  
Andrew Kovinsky, якщо плюси/2+2 не транслювали цей фільм останні років 10, то її знищено.
boroznaya 
Попереджень: 1
Попереджень: 1 


З нами з: 02.11.12
Востаннє: 16.11.18
Повідомлень: 2967

2017-05-02 15:44  
Доволі непогано, хоча, в колекцію не потрапляє. Дивитись можна, все ж таки, молодий Лундгрен.
EvGaS 
Відео Гуртом - субтитрування
Відео Гуртом - субтитрування


З нами з: 27.02.12
Востаннє: 17.11.18
Повідомлень: 5072

2017-05-02 16:37  
Anonymous написано:
Пістолет прибульця - це модифікований Calico M950.

Це ж автомат (пістолет-кулемет) пістолетного калібру. Бо тоді Узі — теж пістолетом буде. Патрон в них однаковий — парабеллумівський.

Додано через 4 хвилини 11 секунд:

Anonymous написано:
Також є плутанина з роком виходу фільму: IMDB пише 1990, а в самому фільмі вказано 1989 рік.

В фільмах таке інколи буває, бо їх відзнімуть і вони полежать собі з якихось причин.
Варто вказувати з бази даних, там мабуть береться дата першої комерційної реалізації стрічки (показу?). Якщо вже невідомо — брати з титрів. Розбіжності в роках зустрічаю не вперше, тому не варто панікувати. Wink (1)

Anonymous 







2018-07-16 15:57  
Реліз оновлено - додано озвучення з 
Ваш часовий пояс: GMT + 2 Години

Нова тема   Відповісти