Чорний янгол (Темний ангел, Я прийшов з миром, I Come in Peace) / Dark Angel (1990) 720p 2xUkr/Eng | Sub Eng

Нові коментарі

Нова тема   Відповісти
Останній раз роздавалося OzzyZig (2020-08-06)
Автор Повідомлення
Anonymous 







2015-05-03 16:23  
Чорний янгол / Темний ангел / Я прийшов з миром / Dark Angel / I Come in Peace (1990) 720p 2xUkr/Eng | Sub Eng



Альтернативні постери










повнорозмірні зображення відкриються по кліку (з натиснутим CTRL чи кліком середньою кнопкою мишки - у іншій вкладці)


Жанр: бойовик, фантастика, трилер, драма, кримінальний, жахи
Країна: США



Кінокомпанія: Vision PDG, Epic Productions, Epic Productions, Trans World Entertainment (TWE), Vision International
Режисер: Крейг Р. Бакслі / Craig R. Baxley
Актори: Дольф Лундгрен / Dolph Lundgren, Брайан Бенбен / Brian Benben, Бетсі Брентлі / Betsy Brantley, Девід Ейкройд / David Ackroyd, Матіас Х'юз / Matthias Hues, Джей Білас / Jay Bilas, Джим Гейні / Jim Haynie та інші

Сюжет:
Під час операції по затриманню наркоторговців поліцейський Джек Кейн (Дольф Лундгрен) втрачає напарника і починає розслідування серії дивних смертей - жертви гинуть від неймовірно великої дози героїну, хоча ніколи не були наркоманами.

Разом з новим напарником, приставленим до нього пихатим фбрівцем, Джек приходять до дивовижного висновку: вбивця ніхто інший, як інопланетний злочинець, що полює за ідеальним наркотиком - ендорфіном, який викачує зі своїх жертв. Але чи зможе людина перемогти прибульця?
Цікаві факти про фільм

• Маттіасу Х'юзу, що зіграв "поганого" прибульця, довелося виконувати всі трюки самостійно, оскільки не знайшлося каскадерів такого ж великого зросту.
• В американський прокат картина вийшла під назвою "Я прийшов з миром", щоб не виникло плутанини зі старим фільмом з однойменною назвою.
• На ранніх етапах створення сценарію, фільм мав бути комедією.
• Спочатку планувалося, що Дольф Лундгрен зіграє роль "поганого" Прибульця.
• Маттіас Х'юз носив спеціальні платформи, які робили його вище, кожна важила 20 фунтів.
• Ця стрічка є однією з улюблених у Стівена Кінга.
• Пістолет прибульця - це модифікований Calico M950.
• Сценарій редагував Девід Кепп.
• Перша (робоча) назва - "Смертельний контракт (Lethal Contact).
• Фільм був у міжнародному прокаті під назвою Темний ангел (Dark Angel). У США у прокаті була інша назва - Я прийшов з миром (I Come in Peace).

Рейтинг MPAA: R - особам до 17 років обов'язкова присутність батьків або дорослого опікуна
Вікова категорія: 16+

Тривалість: 01:31:56
Якість: 720p
Відео:
кодек:
розмір кадру: 1280 х 720
бітрейт: 10 Мб/с [crf=18]

Аудіо # 1:
мова: українська
переклад: двоголосий закадровий
кодек: 2.0
бітрейт: 192 кб/с
примітка: назву озвучено "Чорний янгол"

Аудіо # 2:
мова: українська
переклад: двоголосий закадровий
кодек: 2.0
бітрейт: 192 кб/с
примітка: назву озвучено "Я прийшов з миром"

Аудіо # 3:
мова: англійська
переклад: оригінал
кодек: 5.1
бітрейт: 640 кб/с

Субтитри # 1-2:
мова: англійська (повні, SDH)
тип: програмні (м'які)
формат: *.srt

Збережено оригінальні розділи, як на Blu-ray.
Info
Код:
Complete name               : Dark Angel (I Come in Peace) (1990) [2xUkr,Eng sub.Eng] 720p [Hurtom].
Format                      :
Format version              : Version 4 / Version 2
File size                   : 7.08 GiB
Duration                    : 1 h 31 min
Overall bit rate            : 11.0 Mb/s
Movie name                  : Чорний янгол / Темний ангел / Я прийшов з миром / Dark Angel / I Come in Peace (1990) [2xUkr,Eng sub.Eng] 720p [Hurtom]
Encoded date                : UTC 2018-07-16 14:27:35
Writing application         : v25.0.0 ('Prog Noir') 64-bit
Writing library             : libebml v1.3.6 + v1.4.9
Cover                       : Yes
Attachments                 : cover.jpg

Video
ID                          : 1
Format                      : AVC
Format/Info                 : Advanced Video Codec
Format profile              : [email protected]
Format settings             : CABAC / 9 Ref Frames
Format settings, CABAC      : Yes
Format settings, ReFrames   : 9 frames
Codec ID                    : V_MPEG4/ISO/AVC
Duration                    : 1 h 31 min
Bit rate                    : 10.0 Mb/s
Width                       : 1 280 pixels
Height                      : 720 pixels
Display aspect ratio        : 16:9
Frame rate mode             : Constant
Frame rate                  : 23.976 (24000/1001) FPS
Color space                 : YUV
Chroma subsampling          : 4:2:0
Bit depth                   : 8 bits
Scan type                   : Progressive
Bits/(Pixel*Frame)          : 0.453
Stream size                 : 6.42 GiB (91%)
Title                       : Чорний янгол / Темний ангел / Я прийшов з миром / Dark Angel / I Come in Peace (1990) 720p [HDClub-neofilm]
Writing library             : core 142 r2479kMod dd79a61
Encoding settings           : cabac=1 / ref=9 / deblock=1:-3:-3 / analyse=0x3:0x133 / me=umh / subme=10 / psy=1 / fade_compensate=0.00 / psy_rd=1.10:0.00 / mixed_ref=1 / me_range=32 / chroma_me=1 / trellis=2 / 8x8dct=1 / cqm=0 / deadzone=21,11 / fast_pskip=0 / chroma_qp_offset=-2 / threads=6 / lookahead_threads=1 / sliced_threads=0 / nr=0 / decimate=0 / interlaced=0 / bluray_compat=0 / constrained_intra=0 / fgo=0 / bframes=9 / b_pyramid=2 / b_adapt=2 / b_bias=0 / direct=3 / weightb=1 / open_gop=0 / weightp=2 / keyint=250 / keyint_min=23 / scenecut=40 / intra_refresh=0 / rc_lookahead=60 / rc=crf / mbtree=0 / crf=18.0000 / qcomp=0.70 / qpmin=0 / qpmax=69 / qpstep=4 / vbv_maxrate=62500 / vbv_bufsize=78125 / crf_max=0.0 / nal_hrd=none / filler=0 / ip_ratio=1.20 / pb_ratio=1.10 / aq=1:0.60
Language                    : English
Default                     : Yes
Forced                      : No

Audio #1
ID                          : 2
Format                      : AC-3
Format/Info                 : Audio Coding 3
Codec ID                    : A_AC3
Duration                    : 1 h 31 min
Bit rate mode               : Constant
Bit rate                    : 192 kb/s
Channel(s)                  : 2 channels
Channel positions           : Front: L R
Sampling rate               : 48.0 kHz
Frame rate                  : 31.250 FPS (1536 SPF)
Bit depth                   : 16 bits
Compression mode            : Lossy
Stream size                 : 126 MiB (2%)
Title                       : DVO [ICTV 06.07.2018] 2.0 192 Kbps [Hurtom-Arsenfpu, Bohdan237]
Language                    : Ukrainian
Service kind                : Complete Main
Default                     : Yes
Forced                      : Yes

Audio #2
ID                          : 3
Format                      : AC-3
Format/Info                 : Audio Coding 3
Codec ID                    : A_AC3
Duration                    : 1 h 31 min
Bit rate mode               : Constant
Bit rate                    : 192 kb/s
Channel(s)                  : 2 channels
Channel positions           : Front: L R
Sampling rate               : 48.0 kHz
Frame rate                  : 31.250 FPS (1536 SPF)
Bit depth                   : 16 bits
Compression mode            : Lossy
Stream size                 : 126 MiB (2%)
Title                       : DVO [1+1] 2.0 192 kbps [Hurtom-JACKUS,olgaya]
Language                    : Ukrainian
Service kind                : Complete Main
Default                     : No
Forced                      : No

Audio #3
ID                          : 4
Format                      : AC-3
Format/Info                 : Audio Coding 3
Codec ID                    : A_AC3
Duration                    : 1 h 31 min
Bit rate mode               : Constant
Bit rate                    : 640 kb/s
Channel(s)                  : 6 channels
Channel positions           : Front: L C R, Side: L R, LFE
Sampling rate               : 48.0 kHz
Frame rate                  : 31.250 FPS (1536 SPF)
Bit depth                   : 16 bits
Compression mode            : Lossy
Stream size                 : 421 MiB (6%)
Title                       : Original, 5.1 640 Kbps
Language                    : English
Service kind                : Complete Main
Default                     : No
Forced                      : No

Text #1
ID                          : 5
Format                      : UTF-8
Codec ID                    : S_TEXT/UTF8
Codec ID/Info               : UTF-8 Plain Text
Duration                    : 1 h 27 min
Bit rate                    : 49 b/s
Count of elements           : 1112
Stream size                 : 31.5 KiB (0%)
Title                       : Eng Full
Language                    : English
Default                     : No
Forced                      : No

Text #2
ID                          : 6
Format                      : UTF-8
Codec ID                    : S_TEXT/UTF8
Codec ID/Info               : UTF-8 Plain Text
Duration                    : 1 h 27 min
Bit rate                    : 52 b/s
Count of elements           : 1217
Stream size                 : 33.5 KiB (0%)
Title                       : Eng SDH
Language                    : English
Default                     : No
Forced                      : No

Menu
00:00:00.000                : en:Chapter 01
00:07:55.016                : en:Chapter 02
00:18:17.763                : en:Chapter 03
00:24:57.078                : en:Chapter 04
00:31:18.459                : en:Chapter 05
00:37:21.864                : en:Chapter 06
00:45:20.676                : en:Chapter 07
00:51:28.293                : en:Chapter 08
00:57:35.368                : en:Chapter 09
01:03:44.320                : en:Chapter 10
01:09:32.001                : en:Chapter 11
01:18:56.773                : en:Chapter 12




Джерела та подяки: &
ріп відео, оригінальні звук та субтитри - neofilm (HDClub); українські доріжки - 1) Bohdan237 запис з ТБ, Arsenfpu - синхронізація; 2) olgaya - запис з ТБ, JACKUS - синхронізація; українізований постер - gig_Panas (всі - Гуртом).

Особиста оцінка: 8 - мені сподобалося

16.07.2018 реліз оновлено - додано озвучення , оригінальну доріжку замінено з на


ЗАЛИШАЙТЕСЬ ЯКОМОГА ДОВШЕ НА РОЗДАЧІ!

ЗАВАНТАЖИВ САМ - ДАЙ ЗАВАНТАЖИТИ ІНШИМ


Срібний реліз (на рейтинг впливає 50% завантаженого)
 Трекер:    Зареєстрований   

Завантажити / скачати фільм українською



відео для новачків



 Зареєстрований:   2018-07-16 17:56
 Розмір:   7.08 GB 
 Оцінка фільму:   6.4/10 (Голосів: 25)
   
Anonymous 







2015-05-03 16:35  
Щодо назви фільму: офіційна міжнародна "Dark Angel" (Темний ангел, Чорний ангел, Ангел пітьми) та американська "I Come in Peace" ("Я прийшов з миром", саме так і озвучено в доріжці 1+1).
Також є плутанина з роком виходу фільму: IMDB пише 1990, а в самому фільмі - 1989.

Anonymous 







2018-07-16 17:58  
Реліз оновлено - додано озвучення , оригінальну доріжку замінено з на
"золото" на тиждень для заохочення підтримки

Oleksa9 
VIP


З нами з: 17.05.12
Востаннє: 21.09.20
Повідомлень: 412

2018-07-17 20:40  
Аби був чорний, то було б black. Тому темний, а не чорний.
Legato 
Новенький


З нами з: 24.03.10
Востаннє: 13.09.20
Повідомлень: 4

2020-02-01 18:34  
Станьте будь ласка на роздачу хто може
Ваш часовий пояс: GMT + 2 Години

Нова тема   Відповісти