Індіанець у шафі / The Indian in the Cupboard (1995) 720p 2xUkr/Eng | Sub Eng

Нові коментарі

Нова тема   Відповісти
Автор Повідомлення
Anonymous 







2015-05-03 10:37  
Індіанець у шафі / The Indian in the Cupboard (1995) 720p 2xUkr/Eng | Sub Eng

Індіанець у шафі / The Indian in the Cupboard (1995) 720p 2xUkr/Eng | Sub Eng

Альтернативні постери






повнорозмірні зображення відкриються по кліку (з натиснутим CTRL чи кліком середньою кнопкою мишки - у іншій вкладці)

Жанр: фентезі, пригодницький, сімейний
Країна: США



Кінокомпанія: Columbia Pictures Corporation, Kennedy/Marshall Company, The Paramount Pictures, Reliable Pictures Corporation, Scholastic Productions
Режисер: Френк Оз / Frank Oz
Актори: Гел Скардіно / Hal Scardino, Лайтфут / Litefoot, Ліндсей Круз / Lindsay Crouse, Річард Дженкінс / Richard Jenkins, Ріші Бхат / Rishi Bhat, Стів Куґен / Steve Coogan, Девід Кейт / David Keith, Сакіне Джеффрі / Sakina Jaffrey, Вінсент Картайзер / Vincent Kartheiser, Нестор Серрано / Nestor Serrano та інші

Сюжет:
На день народження хлопчик Омрі отримує багато подарунків. Два з яких, на перший погляд, не мають особливої ​​цінності: стара шафа від брата і маленький пластиковий індіанець. Але саме ці дві речі принесуть йому багато несподіванок і сюрпризів ...


Рейтинг MPAA: PG - рекомендується присутність батьків
Вікова категорія: 6+

Тривалість: 01:36:09
Якість: 720p [Hurtom]
Відео:
кодек:
розмір кадру: 1280 х 692
бітрейт: 6516 кбіт/с [crf=19]

Аудіо # 1:
мова: українська
переклад: багатоголосий закадровий
кодек: 2.0
бітрейт: 192 Кбіт/с

Аудіо # 2:
мова: українська
переклад: двоголосий закадровий
кодек: 2.0
бітрейт: 192 Кбіт/с

Аудіо # 3:
мова: англійська
переклад: оригінал
кодек: 5.1
бітрейт: 640 Кбіт/с

Субтитри :
мова: англійська
тип: програмні (м'які)
формат: *.srt

Збережено оригінальні розділи, як на Blu-ray
Info та log
Код:
Complete name               : The Indian in the Cupboard (1995) [2xUkr,Eng sub.Eng] 720p [Hurtom].
Format                      :
Format version              : Version 4 / Version 2
File size                   : 5.07 GiB
Duration                    : 1 h 36 min
Overall bit rate            : 7 542 kb/s
Movie name                  : Індіанець у шафі / The Indian in the Cupboard (1995) [2xUkr,Eng sub.Eng] 720p [Hurtom]
Writing application         : mkvmerge v16.0.0 ('Protest') 64-bit
Writing library             : libebml v1.3.5 + libmatroska v1.4.8
Cover                       : Yes
Attachments                 : cover.jpg

Video
ID                          : 1
Format                      : AVC
Format/Info                 : Advanced Video Codec
Format profile              : [email protected]
Format settings             : CABAC / 9 Ref Frames
Format settings, CABAC      : Yes
Format settings, RefFrames  : 9 frames
Codec ID                    : V_MPEG4/ISO/AVC
Duration                    : 1 h 36 min
Bit rate                    : 6 516 kb/s
Width                       : 1 280 pixels
Height                      : 692 pixels
Display aspect ratio        : 1.85:1
Frame rate mode             : Constant
Frame rate                  : 23.976 (24000/1001) FPS
Color space                 : YUV
Chroma subsampling          : 4:2:0
Bit depth                   : 8 bits
Scan type                   : Progressive
Bits/(Pixel*Frame)          : 0.307
Stream size                 : 4.38 GiB (86%)
Title                       : Індіанець у шафі / The Indian in the Cupboard (1995) 720p 2xUkr/Eng [Hurtom]
Writing library             : core 148 r2744 b97ae06
Encoding settings           : cabac=1 / ref=9 / deblock=1:-1:-1 / analyse=0x3:0x133 / me=umh / subme=11 / psy=1 / psy_rd=1.00:0.15 / mixed_ref=1 / me_range=32 / chroma_me=1 / trellis=2 / 8x8dct=1 / cqm=0 / deadzone=21,11 / fast_pskip=1 / chroma_qp_offset=-3 / threads=12 / lookahead_threads=3 / sliced_threads=0 / nr=0 / decimate=1 / interlaced=0 / bluray_compat=0 / constrained_intra=0 / bframes=10 / b_pyramid=2 / b_adapt=2 / b_bias=0 / direct=3 / weightb=1 / open_gop=0 / weightp=2 / keyint=240 / keyint_min=23 / scenecut=40 / intra_refresh=0 / rc_lookahead=60 / rc=crf / mbtree=1 / crf=19.0 / qcomp=0.60 / qpmin=0 / qpmax=69 / qpstep=4 / vbv_maxrate=50000 / vbv_bufsize=62500 / crf_max=0.0 / nal_hrd=none / filler=0 / ip_ratio=1.40 / aq=1:1.00
Language                    : English
Default                     : Yes
Forced                      : No

Audio #1
ID                          : 2
Format                      : AC-3
Format/Info                 : Audio Coding 3
Format settings, Endianness : Big
Codec ID                    : A_AC3
Duration                    : 1 h 36 min
Bit rate mode               : Constant
Bit rate                    : 192 kb/s
Channel(s)                  : 2 channels
Channel positions           : Front: L R
Sampling rate               : 48.0 kHz
Frame rate                  : 31.250 FPS (1536 SPF)
Bit depth                   : 16 bits
Compression mode            : Lossy
Stream size                 : 132 MiB (3%)
Title                       : MVO [K1] 2.0 192 Kbps [Hurtom-taraskill1]
Language                    : Ukrainian
Service kind                : Complete Main
Default                     : Yes
Forced                      : Yes

Audio #2
ID                          : 3
Format                      : AC-3
Format/Info                 : Audio Coding 3
Format settings, Endianness : Big
Codec ID                    : A_AC3
Duration                    : 1 h 36 min
Bit rate mode               : Constant
Bit rate                    : 192 kb/s
Channel(s)                  : 2 channels
Channel positions           : Front: L R
Sampling rate               : 48.0 kHz
Frame rate                  : 31.250 FPS (1536 SPF)
Bit depth                   : 16 bits
Compression mode            : Lossy
Stream size                 : 132 MiB (3%)
Title                       : DVO [1+1] 2.0 192 kbps [Hurtom-taraskill1]
Language                    : Ukrainian
Service kind                : Complete Main
Default                     : No
Forced                      : No

Audio #3
ID                          : 4
Format                      : AC-3
Format/Info                 : Audio Coding 3
Format settings, Endianness : Big
Codec ID                    : A_AC3
Duration                    : 1 h 36 min
Bit rate mode               : Constant
Bit rate                    : 640 kb/s
Channel(s)                  : 6 channels
Channel positions           : Front: L C R, Side: L R, LFE
Sampling rate               : 48.0 kHz
Frame rate                  : 31.250 FPS (1536 SPF)
Bit depth                   : 16 bits
Compression mode            : Lossy
Stream size                 : 440 MiB (8%)
Title                       : Original, 5.1 640 Kbps
Language                    : English
Service kind                : Complete Main
Default                     : No
Forced                      : No

Text
ID                          : 5
Format                      : UTF-8
Codec ID                    : S_TEXT/UTF8
Codec ID/Info               : UTF-8 Plain Text
Duration                    : 1 h 27 min
Bit rate                    : 35 b/s
Count of elements           : 837
Stream size                 : 23.2 KiB (0%)
Title                       : Eng full
Language                    : English
Default                     : No
Forced                      : No

Menu
00:00:00.000                : en:00:00:00.000
00:04:46.620                : en:00:04:46.620
00:07:46.216                : en:00:07:46.216
00:13:15.086                : en:00:13:15.086
00:17:33.094                : en:00:17:33.094
00:21:07.308                : en:00:21:07.308
00:26:56.657                : en:00:26:56.657
00:34:00.580                : en:00:34:00.580
00:40:32.180                : en:00:40:32.180
00:46:21.612                : en:00:46:21.612
00:50:27.399                : en:00:50:27.399
00:56:28.427                : en:00:56:28.427
01:04:58.603                : en:01:04:58.603
01:08:38.573                : en:01:08:38.573
01:14:13.908                : en:01:14:13.908
01:24:12.130                : en:01:24:12.130

Код:
raw [info]: 1280x692p 1:1 @ 24000/1001 fps (cfr)
[info]: using SAR=1/1
[info]: using cpu capabilities: MMX2 SSE2Fast SSSE3 SSE4.2 AVX
[info]: profile High, level 4.1
[info]: frame I:911   Avg QP:16.36  size:159766
[info]: frame P:25304 Avg QP:19.90  size: 57813
[info]: frame B:112121 Avg QP:22.03  size: 27566
[info]: consecutive B-frames:  1.2%  1.3%  4.2% 11.8% 13.9% 37.3% 10.1% 12.2%  4.9%  1.9%  1.4%
[info]: mb I  I16..4: 17.7% 65.6% 16.7%
[info]: mb P  I16..4:  0.5% 13.1%  1.5%  P16..4: 28.2% 34.2% 11.7%  1.7%  0.2%    skip: 8.8%
[info]: mb B  I16..4:  0.0%  3.8%  0.3%  B16..8: 41.5% 18.3%  4.0%  direct: 6.4%  skip:25.8%  L0:46.8% L1:45.4% BI: 7.8%
[info]: 8x8 transform intra:87.3% inter:60.7%
[info]: direct mvs  spatial:100.0% temporal:0.0%
[info]: coded y,uvDC,uvAC intra: 93.9% 84.3% 56.4% inter: 38.7% 22.2% 2.7%
[info]: i16 v,h,dc,p: 24% 10% 23% 43%
[info]: i8 v,h,dc,ddl,ddr,vr,hd,vl,hu: 10%  6% 14% 10% 13% 12% 12% 11% 12%
[info]: i4 v,h,dc,ddl,ddr,vr,hd,vl,hu: 43%  5%  8%  6%  8%  8%  8%  7%  7%
[info]: i8c dc,h,v,p: 41% 23% 19% 17%
[info]: Weighted P-Frames: Y:4.7% UV:2.3%
[info]: ref P L0: 39.8%  8.8% 20.8%  8.0%  7.6%  4.8%  4.9%  2.4%  2.8%  0.1%  0.0%
[info]: ref B L0: 68.7% 13.0%  7.3%  4.0%  2.9%  2.4%  1.3%  0.4%
[info]: ref B L1: 93.3%  6.7%
[info]: kb/s:6515.64
encoded 138336 frames, 6.85 fps, 6515.64 kb/s




Джерело:
українські доріжки - taraskill1 - зведення, POMEO - запис з ТБ; українізований постер - BigMak (всі - Гуртом).


ЗАЛИШАЙТЕСЬ ЯКОМОГА ДОВШЕ НА РОЗДАЧІ!

ЗАВАНТАЖИВ САМ - ДАЙ ЗАВАНТАЖИТИ ІНШИМ


Срібний реліз (на рейтинг впливає 50% завантаженого)
 Трекер:    Зареєстрований   

Завантажити / скачати фільм українською



відео для новачків



 Зареєстрований:   2017-10-02 20:01
 Розмір:   5.07 GB 
 Оцінка фільму:   4/10 (Голосів: 15)
   
Інші релізи
Anonymous 







2017-10-02 20:07  
Реліз оновлено до 'а


Додано через 56 секунд:

також буде ремукс

Ваш часовий пояс: GMT + 2 Години

Нова тема   Відповісти