Книга життя / The Book of Life (2014) 720p Ukr/Eng | Sub Ukr/Eng

Нові коментарі

Нова тема   Відповісти
Автор Повідомлення
leroykendall 
Модератор HD


З нами з: 03.01.11
Востаннє: 13.05.17
Повідомлень: 749

2015-04-23 17:43  
Книга життя / The Book of Life (2014) 720p Ukr/Eng | Sub Ukr/Eng



Жанр: анімація, пригодницький, комедія
Країна: США





Кінокомпанія: Reel FX Creative Studios, Twentieth Century Fox, Chatrone
Режисер: Хорхе Р. Ґутьєррес (Jorge R. Gutiérrez)
Актори: Дієґо Луна (Diego Luna), Зої Салдана (Zoe Saldana), Ченнінґ Тейтум (Channing Tatum), Рон Перлмен (Ron Perlman), Крістіна Еплґейт (Christina Applegate), Айс Кьюб (Ice Cube), Кейт Дель Кастільо (Kate del Castillo), Ґектор Елізондо (Hector Elizondo), Денні Трехо (Danny Trejo), Карлос Алазракві (Carlos Alazraqui)

Сюжет:
Від продюсера Гіл'єрмо дель Торро та режисера Хохе Ґутьєрреса. Анімаційна комедія з унікальним стилем візуалізації. Книга життя - це подорож Маноло - молодого хлопця, який розривається між виконанням сподівань своєї родини та покликанням серця. Перед тим як вирішити який шлях обрати, він стає втягнутим у подорож між трьома фантастичними світами, де він матиме випробування власними найбільшими страхами. Багата на свіжий підхід до поп музики, Книга Життя заохочує нас святкувати минуле дивлячись в майбутнє.


Тривалість: 01:35:25
Якість: 720p

Відео:
кодек:
розмір кадру: 1280 х 536
бітрейт: 6504 кб/с

Аудіо # 1:
мова: українська
переклад: професійний дубльований
кодек: 5.1
бітрейт: 448 кб/с

Аудіо # 2:
мова: англійська
переклад: оригінал
кодек: 5.1
бітрейт: 1536 кб/с

Аудіо # 3:
мова: англійська
переклад: коментарі режисера Хорхе Ґутьєрреса
кодек: 2.0
бітрейт: 224 кб/с

Субтитри # 1:
мова: українська
тип: програмні (м'які)
формат: *.srt

Субтитри # 2-4 (форсовані, повні, SDH):
мова: англійська
тип: програмні (м'які)
формат: *.srt

Збережені оригінальні чаптери як на Blu-ray.
Info
Код:
General
Unique ID                   : 238366007602398485532548250420491418081 (0xB3539F887F93A181936E5F4E884979E1)
Complete name               : F:\User\video\The Book of Life (2014) [Ukr, Eng] 720p [Hurtom] by leroykendall.
Format                      :
Format version              : Version 4 / Version 2
File size                   : 5.88 GiB
Duration                    : 1h 35mn
Overall bit rate            : 8 829 Kbps
Movie name                  : The Book of Life (2014) [Ukr, Eng] 720p [Hurtom] by leroykendall
Encoded date                : UTC 2015-04-23 06:29:17
Writing application         : mkvmerge v7.8.0 ('River Man') 32bit built on Mar 27 2015 16:18:02
Writing library             : libebml v1.3.1 + libmatroska v1.4.2
DURATION                    : 01:31:02.080000000
NUMBER_OF_FRAMES            : 1938
NUMBER_OF_BYTES             : 48754
_STATISTICS_WRITING_APP     : mkvmerge v7.8.0 ('River Man') 32bit built on Mar 27 2015 16:18:02
_STATISTICS_WRITING_DATE_UT : 2015-04-23 06:29:17
_STATISTICS_TAGS            : BPS DURATION NUMBER_OF_FRAMES NUMBER_OF_BYTES

Video
ID                          : 1
Format                      : AVC
Format/Info                 : Advanced Video Codec
Format profile              : [email protected]
Format settings, CABAC      : Yes
Format settings, ReFrames   : 12 frames
Codec ID                    : V_MPEG4/ISO/AVC
Duration                    : 1h 35mn
Bit rate                    : 6 504 Kbps
Width                       : 1 280 pixels
Height                      : 536 pixels
Display aspect ratio        : 2.40:1
Frame rate mode             : Constant
Frame rate                  : 23.976 fps
Color space                 : YUV
Chroma subsampling          : 4:2:0
Bit depth                   : 8 bits
Scan type                   : Progressive
Bits/(Pixel*Frame)          : 0.395
Stream size                 : 4.33 GiB (74%)
Title                       : The Book of Life (2014) [Hurtom]
Writing library             : core 142 r2491kMod 24e4fed
Encoding settings           : cabac=1 / ref=12 / deblock=1:-3:-3 / analyse=0x3:0x133 / me=umh / subme=10 / psy=1 / fade_compensate=0.00 / psy_rd=0.62:0.00 / mixed_ref=1 / me_range=24 / chroma_me=1 / trellis=2 / 8x8dct=1 / cqm=0 / deadzone=21,11 / fast_pskip=0 / chroma_qp_offset=-2 / threads=12 / lookahead_threads=2 / sliced_threads=0 / nr=0 / decimate=0 / interlaced=0 / bluray_compat=0 / constrained_intra=0 / fgo=0 / bframes=9 / b_pyramid=2 / b_adapt=2 / b_bias=0 / direct=3 / weightb=1 / open_gop=0 / weightp=2 / keyint=250 / keyint_min=23 / scenecut=40 / intra_refresh=0 / rc=crf / mbtree=0 / crf=14.6000 / qcomp=0.70 / qpmin=0 / qpmax=69 / qpstep=4 / ip_ratio=1.30 / pb_ratio=1.20 / aq=1:1.10
Language                    : English
Default                     : Yes
Forced                      : No
DURATION                    : 01:35:24.678000000
NUMBER_OF_FRAMES            : 137255
NUMBER_OF_BYTES             : 4777590652
_STATISTICS_WRITING_APP     : mkvmerge v7.8.0 ('River Man') 32bit built on Mar 27 2015 16:18:02
_STATISTICS_WRITING_DATE_UT : 2015-04-23 06:29:17
_STATISTICS_TAGS            : BPS DURATION NUMBER_OF_FRAMES NUMBER_OF_BYTES

Audio #1
ID                          : 2
Format                      : AC-3
Format/Info                 : Audio Coding 3
Mode extension              : CM (complete main)
Format settings, Endianness : Big
Codec ID                    : A_AC3
Duration                    : 1h 35mn
Bit rate mode               : Constant
Bit rate                    : 448 Kbps
Channel(s)                  : 6 channels
Channel positions           : Front: L C R, Side: L R, LFE
Sampling rate               : 48.0 KHz
Compression mode            : Lossy
Stream size                 : 306 MiB (5%)
Title                       : 5.1 @ 448 kbps - DUB, Blu-ray EUR
Language                    : Ukrainian
Default                     : Yes
Forced                      : No

Audio #2
ID                          : 3
Format                      :
Format/Info                 : Digital Theater Systems
Mode                        : 16
Format settings, Endianness : Big
Codec ID                    : A_DTS
Duration                    : 1h 35mn
Bit rate mode               : Constant
Bit rate                    : 1 509 Kbps
Channel(s)                  : 6 channels
Channel positions           : Front: L C R, Side: L R, LFE
Sampling rate               : 48.0 KHz
Bit depth                   : 24 bits
Compression mode            : Lossy
Delay relative to video     : 11ms
Stream size                 : 1.01 GiB (17%)
Title                       : 5.1 @ 1536 kbps
Language                    : English
Default                     : No
Forced                      : No

Audio #3
ID                          : 4
Format                      : AC-3
Format/Info                 : Audio Coding 3
Mode extension              : CM (complete main)
Format settings, Endianness : Big
Codec ID                    : A_AC3
Duration                    : 1h 35mn
Bit rate mode               : Constant
Bit rate                    : 192 Kbps
Channel(s)                  : 2 channels
Channel positions           : Front: L R
Sampling rate               : 48.0 KHz
Compression mode            : Lossy
Stream size                 : 131 MiB (2%)
Title                       : 2.0 @ 224 kbps - Audio Commentary by Director Jorge R. Gutierrez
Language                    : English
Default                     : No
Forced                      : No

Text #1
ID                          : 5
Format                      : UTF-8
Codec ID                    : S_TEXT/UTF8
Codec ID/Info               : UTF-8 Plain Text
Title                       : iTunes
Language                    : Ukrainian
Default                     : No
Forced                      : No

Text #2
ID                          : 6
Format                      : UTF-8
Codec ID                    : S_TEXT/UTF8
Codec ID/Info               : UTF-8 Plain Text
Title                       : Forced
Language                    : English
Default                     : No
Forced                      : No

Text #3
ID                          : 7
Format                      : UTF-8
Codec ID                    : S_TEXT/UTF8
Codec ID/Info               : UTF-8 Plain Text
Language                    : English
Default                     : No
Forced                      : No

Text #4
ID                          : 8
Format                      : UTF-8
Codec ID                    : S_TEXT/UTF8
Codec ID/Info               : UTF-8 Plain Text
Title                       : SDH
Language                    : English
Default                     : No
Forced                      : No

Menu
00:00:00.000                : en:00:00:00.000
00:02:58.053                : en:00:02:58.053
00:05:39.631                : en:00:05:39.631
00:08:35.014                : en:00:08:35.014
00:12:08.478                : en:00:12:08.478
00:15:07.698                : en:00:15:07.698
00:19:24.246                : en:00:19:24.246
00:22:20.089                : en:00:22:20.089
00:26:08.150                : en:00:26:08.150
00:28:59.571                : en:00:28:59.571
00:33:02.147                : en:00:33:02.147
00:37:25.952                : en:00:37:25.952
00:41:07.090                : en:00:41:07.090
00:43:14.634                : en:00:43:14.634
00:47:02.486                : en:00:47:02.486
00:50:53.050                : en:00:50:53.050
00:53:13.232                : en:00:53:13.232
00:56:30.220                : en:00:56:30.220
01:00:16.279                : en:01:00:16.279
01:03:57.792                : en:01:03:57.792
01:06:48.379                : en:01:06:48.379
01:09:09.896                : en:01:09:09.896
01:11:52.016                : en:01:11:52.016
01:15:53.215                : en:01:15:53.215
01:18:52.770                : en:01:18:52.770
01:21:13.410                : en:01:21:13.410
01:23:33.842                : en:01:23:33.842
01:27:11.893                : en:01:27:11.893
Скріншоти:




Джерело:


 Трекер:    Зареєстрований   

Завантажити / скачати мультфільм українською



відео для новачків



 Зареєстрований:   2015-04-23 17:52
 Розмір:   5.88 GB 
 Оцінка мультфільму:   9.8/10 (Голосів: 13)
   
AngryBirdsUA 
Свій


З нами з: 24.02.10
Востаннє: 27.05.17
Повідомлень: 3060

2015-04-23 20:36  
Модератор HD
Міг би і запитати чи я не буду оновлювати.

11FrYkT 
Модератор відео


З нами з: 20.02.11
Востаннє: 28.05.17
Повідомлень: 3674

2015-04-23 21:02  
Vasua95 написано:
оновлювати

Не хочу нічого починати, але що?
Vasua95 написано:
Міг би і запитати

Люди запитували https://toloka.to/t63941 місяць назад, я запитував вас 5 днів назад, а у відповідь тишина. Тож вибачте мене, но Ваше зауваження недоречне.

odin_doma2 
Частий відвідувач


З нами з: 22.07.08
Востаннє: 27.05.17
Повідомлень: 41

2015-04-23 21:35  
Панове, роздача не призупинена часом? Жодного руху Sad (1)
leroykendall 
Модератор HD


З нами з: 03.01.11
Востаннє: 13.05.17
Повідомлень: 749

2015-04-23 22:30  
Vasua95 написано:
Vasua95

П-р-р-р. Притримай коней, друже. Що сталося?
Оновлювати що? Я щось нічого не бачив.

AngryBirdsUA 
Свій


З нами з: 24.02.10
Востаннє: 27.05.17
Повідомлень: 3060

2015-04-24 12:48  
leroykendall
Ой щось затипив!
Я мав виласти з 2,0 так і не виклав.
Вибачай.
11FrYkT
Я до тебе не писав не пхай свого носа там де не треба!
І я не зобов'язаний тобі відписувати, або читати коментврі до твоїх релізів.

11FrYkT 
Модератор відео


З нами з: 20.02.11
Востаннє: 28.05.17
Повідомлень: 3674

2015-04-24 14:59  
Vasua95 , я й не пхаю, а констатую факт. Так не зобов*язаний, але є ще такий фактор як людський .
WorldMaster 
Свій


З нами з: 10.10.11
Востаннє: 26.05.17
Повідомлень: 61

2015-04-24 19:43  
Якщо вже такий "махач" в коментарях, то шо ми бачимо: Vasua95 Рейтинг:9.48 і З нами з: 24.02.10 і з іншого боку автор цього релізу 11FrYkT Рейтинг вище: 2528.09 при тому що часу мав менше З нами з: 20.02.11

А про мультик хтось щось може прокоментувати? Rolleyes (1)

11FrYkT 
Модератор відео


З нами з: 20.02.11
Востаннє: 28.05.17
Повідомлень: 3674

2015-04-24 20:21  
WorldMaster , та тут не махач, так просто. І реліз не мій+рейтинг то не головне
AngryBirdsUA 
Свій


З нами з: 24.02.10
Востаннє: 27.05.17
Повідомлень: 3060

2015-04-24 22:39  
11FrYkT
Пиши свої недоречні факти в іншому місці.

11FrYkT 
Модератор відео


З нами з: 20.02.11
Востаннє: 28.05.17
Повідомлень: 3674

2015-04-24 22:54  
Vasua95 , я не хочу розводити флуд, тож промовчу
Alukret 
Новенький


З нами з: 11.06.14
Востаннє: 20.05.17
Повідомлень: 12

2015-05-19 00:22  
WorldMaster написано:
А про мультик хтось щось може прокоментувати? Rolleyes (1)

Пречудовий мультик про те, як треба цінувати відведений нам час...

Дякую за 720р!

fil1786 
Новенький


З нами з: 14.07.12
Востаннє: 27.05.17
Повідомлень: 3

2016-01-04 22:18  
Чудовий мультфільм, дуже сподобався.
vovang6 
Свій


З нами з: 27.08.12
Востаннє: 27.05.17
Повідомлень: 86

2016-01-05 20:22  
8 з 10, хороший мульт.
Ваш часовий пояс: GMT + 2 Години

Нова тема   Відповісти