Ти монетку загубила / You Dropped Your Quarter (2009) 720p Eng | Sub Ukr

Нові коментарі

Нова тема   Відповісти
Автор Повідомлення
wolesj 
VIP


З нами з: 15.07.12
Востаннє: 25.01.20
Повідомлень: 755

2015-04-19 13:35  
Ти монетку загубила / You Dropped Your Quarter (2009) 720p Eng | Sub Ukr

Ти монетку загубила / You Dropped Your Quarter (2009) 720p Eng | Sub Ukr


Жанр: психологічний, сімейний
Країна: США



Кінокомпанія: Openlight Pictures
Режисер: Брюс Джеймс Макґвайр
Актори: Ріс Кулі, Брайлі Райс, Кріс Кларк

Сюжет:
Мовчазна подорож безмежними просторами дитячої уяви.


Тривалість: 00:07:09
Якість:
Відео:
кодек: H264
розмір кадру: 1280x720
бітрейт: 1 981 кб/с

Аудіо:
мова: відсутня
кодек: 2.0
бітрейт: 157 кб/с

Субтитри:
мова: українська (титри, власний переклад)
тип: програмні (м'які)
формат: *.srt
Info
Format : MPEG-4
Format profile : Base Media
Codec ID : isom
File size : 110 MiB
Duration : 7mn 9s
Overall bit rate : 2 141 Kbps
Encoded date : UTC 2010-12-17 03:46:51
Tagged date : UTC 2010-12-18 03:46:56

Video
Format : AVC
Format/Info : Advanced Video Codec
Format profile : [email protected]
Format settings, CABAC : Yes
Format settings, ReFrames : 4 frames
Codec ID : avc1
Codec ID/Info : Advanced Video Coding
Duration : 7mn 9s
Bit rate mode : Variable
Bit rate : 1 981 Kbps
Maximum bit rate : 4 339 Kbps
Width : 1 280 pixels
Height : 720 pixels
Display aspect ratio : 16/9
Frame rate mode : Constant
Frame rate : 23.976 fps
Resolution : 24 bits
Colorimetry : 4:2:0
Scan type : Progressive
Bits/(Pixel*Frame) : 0.090
Stream size : 101 MiB (93%)
Writing library : Vimeo Encoder
Encoded date : UTC 2010-12-17 03:46:51
Tagged date : UTC 2010-12-17 03:46:53

Audio
Format :
Format/Info : Advanced Audio Codec
Format version : Version 4
Format profile : LC
Format settings, SBR : No
Codec ID : 40
Duration : 7mn 9s
Bit rate mode : Variable
Bit rate : 157 Kbps
Maximum bit rate : 253 Kbps
Channel(s) : 2 channels
Channel positions : L R
Sampling rate : 44.1 KHz
Resolution : 16 bits
Stream size : 8.04 MiB (7%)
Encoded date : UTC 2010-12-17 03:46:52
Tagged date : UTC 2010-12-17 03:46:53
Скріншоти



Джерело: vimeo
Особиста оцінка: 10 - без зайвих вагань рекомендую всім!

ДЯКУЮ ЗА ПІДТРИМКУ РОЗДАЧІ!


Золотий реліз (завантажене не впливає на рейтинг)
 Трекер:    Зареєстрований   

Завантажити / скачати фільм українською



відео для новачків



 Зареєстрований:   2015-04-19 13:37
 Розмір:   110 MB 
 Оцінка фільму:   10/10 (Голосів: 4)
   
Konfucius 
Управління
Управління


З нами з: 30.09.07
Востаннє: 26.01.20
Повідомлень: 5192

2015-04-20 17:57  
Бракує Info.
Ваш часовий пояс: GMT + 2 Години

Нова тема   Відповісти