Onuka - Onuka (2014) [FLAC] | Folktronic

Нові коментарі

Нова тема   Відповісти
Автор Повідомлення
vamp69 
Поважний учасник


З нами з: 06.07.09
Востаннє: 22.06.17
Повідомлень: 174

2015-04-18 23:25  
Onuka - Onuka (2014) [FLAC] | Folktronic

Onuka - Onuka (2014) [FLAC] | Folktronic


Стиль: Electro Folk
Країна, місто: Україна, Київ
Сайти: Офіційний сайт
Видавець: Enjoy Records
Виконавці:
Ната Жижченко – тексти, вокал
Дарина Серт - клавішні
Марія Сорокіна - барабани
Євген Йовенко - бандура
Пісні:
    1. Intro (2:26)
    2. Around Me (3:47)
    3. When I Met U (4:08)
    4. Look (3:37)
    5. Zavtra (4:48)
    6. Noone (4:16)
    7. Untitled (4:50)
    8. Misto (5:24)
    9. Time (5:42)
    10. UA (4:36)

Тривалість: 00:43:34
Мова: українська (5, 8), англійська (1-4, 6-7, 9-10)
Аудіо-кодек: FLAC
Бітрейт: 832 кб/с
Джерело: мій CD
Додаткова інформація:
"лог"
Exact Audio Copy V1.0 beta 3 from 29. August 2011

EAC extraction logfile from 18. April 2015, 22:46

ONUKA / ONUKA

Used drive : ATAPI iHAS124 B Adapter: 3 ID: 0

Read mode : Secure
Utilize accurate stream : Yes
Defeat audio cache : Yes
Make use of C2 pointers : No

Read offset correction : 6
Overread into Lead-In and Lead-Out : No
Fill up missing offset samples with silence : Yes
Delete leading and trailing silent blocks : No
Null samples used in CRC calculations : Yes
Used interface : Native Win32 interface for Win NT & 2000

Used output format : Internal WAV Routines
Sample format : 44.100 Hz; 16 Bit; Stereo

TOC of the extracted CD

Track | Start | Length | Start sector | End sector
---------------------------------------------------------
1 | 0:00.00 | 2:26.59 | 0 | 11008
2 | 2:26.59 | 3:47.20 | 11009 | 28053
3 | 6:14.04 | 4:08.53 | 28054 | 46706
4 | 10:22.57 | 3:37.68 | 46707 | 63049
5 | 14:00.50 | 4:48.67 | 63050 | 84716
6 | 18:49.42 | 4:16.61 | 84717 | 103977
7 | 23:06.28 | 4:50.59 | 103978 | 125786
8 | 27:57.12 | 5:24.30 | 125787 | 150116
9 | 33:21.42 | 5:42.67 | 150117 | 175833
10 | 39:04.34 | 4:36.18 | 175834 | 196551

Range status and errors

Selected range

Filename I:\Українська музика\ONUKA - 2014 - ONUKA\ONUKA - 2014 - ONUKA.wav

Peak level 100.0 %
Extraction speed 5.5 X
Range quality 100.0 %
Test CRC E178B7D4
Copy CRC E178B7D4
Copy OK

No errors occurred

AccurateRip summary

Track 1 not present in database
Track 2 not present in database
Track 3 not present in database
Track 4 not present in database
Track 5 not present in database
Track 6 not present in database
Track 7 not present in database
Track 8 not present in database
Track 9 not present in database
Track 10 not present in database

None of the tracks are present in the AccurateRip database

End of status report

---- CUETools DB Plugin V2.1.3

[CTDB TOCID: 6g5sX4OVsnlNlhYGdvYC5g9rxzA-] found, Submit result: 6g5sX4OVsnlNlhYGdvYC5g9rxzA- has been confirmed
[6662bc66] (1/1) Accurately ripped

==== Log checksum C3D933BC5EC598697F4D534771838512B069B7065EABF9F2E2304F6896D2FBE8 ====
Якщо Ви справді бажаєте підтримати українське - після прослуховування, якщо музика вам сподобалась, придбайте ліцензійний диск. Підтримаймо вітчизняних виконавців!


Срібний реліз (на рейтинг впливає 50% завантаженого)
 Трекер:    Зареєстрований   

Завантажити / скачати українську музику



відео для новачків



 Зареєстрований:   2015-04-18 23:25
 Розмір:   271 MB 
 Оцінка музики:   9.9/10 (Голосів: 31)
   
Ваш часовий пояс: GMT + 2 Години

Нова тема   Відповісти