Такі різні світи / Worlds Apart (2013) 720p Eng | Sub Ukr

Нові коментарі

Нова тема   Відповісти
Автор Повідомлення
wolesj 
VIP


З нами з: 15.07.12
Востаннє: 19.08.17
Повідомлень: 454

2015-04-16 21:40  
Такі різні світи / Worlds Apart (2013) 720p Eng | Sub Ukr

Такі різні світи / Worlds Apart (2013) 720p Eng | Sub Ukr


Жанр: анімація, фантастика, трилер
Країна: США



Кінокомпанія: Project X productions, Cogswell Polytechnical College
Режисер: Майкл Закарі Губер
Сюжет:
Частково наукова фантастика, частково трилер і повчальна казка включає в себе універсальні теми невинності, дружби і можливої долі людства. В не надто віддаленому майбутньому на Землю в пошуках розумного життя прибула інопланетна експедиція...


Тривалість: 00:09:06
Якість:
Відео:
кодек:
розмір кадру: 1280x720
бітрейт: 1 897 Kbps

Аудіо:
мова: англійська
переклад: оригінал
кодек: 2.0
бітрейт: 157 Kbps

Субтитри:
мова: українська (власний переклад з англійської)
тип: програмні (м'які)
формат: *.srt
Info
Complete name : Worlds Apart (2013) 720 [Sub Ukr].mp4
Format : MPEG-4
Format profile : Base Media / Version 2
Codec ID : mp42
File size : 123 MiB
Duration : 9mn 6s
Overall bit rate : 1 897 Kbps
Encoded date : UTC 2013-05-11 21:17:21
Tagged date : UTC 2013-05-11 21:17:21

Video
Format : AVC
Format/Info : Advanced Video Codec
Format profile : [email protected]
Format settings, CABAC : Yes
Format settings, ReFrames : 4 frames
Codec ID : avc1
Codec ID/Info : Advanced Video Coding
Duration : 9mn 6s
Bit rate mode : Variable
Bit rate : 1 741 Kbps
Width : 1 280 pixels
Height : 720 pixels
Display aspect ratio : 16/9
Frame rate mode : Variable
Frame rate : 24.000 fps
Resolution : 24 bits
Colorimetry : 4:2:0
Scan type : Progressive
Bits/(Pixel*Frame) : 0.079
Stream size : 113 MiB (91%)
Writing library : core 128 r2216 198a7ea
Encoding settings : cabac=1 / ref=3 / deblock=1:0:0 / analyse=0x3:0x113 / me=hex / subme=7 / psy=1 / psy_rd=1.00:0.00 / mixed_ref=1 / me_range=16 / chroma_me=1 / trellis=1 / 8x8dct=1 / cqm=0 / deadzone=21,11 / fast_pskip=1 / chroma_qp_offset=-2 / threads=48 / lookahead_threads=8 / sliced_threads=0 / nr=0 / decimate=1 / interlaced=0 / bluray_compat=0 / constrained_intra=0 / bframes=3 / b_pyramid=2 / b_adapt=1 / b_bias=0 / direct=1 / weightb=1 / open_gop=0 / weightp=2 / keyint=72 / keyint_min=24 / scenecut=40 / intra_refresh=0 / rc_lookahead=40 / rc=2pass / mbtree=1 / bitrate=1741 / ratetol=1.0 / qcomp=0.60 / qpmin=5 / qpmax=69 / qpstep=4 / cplxblur=20.0 / qblur=0.5 / vbv_maxrate=3750 / vbv_bufsize=12500 / nal_hrd=none / ip_ratio=1.40 / aq=1:1.00
Encoded date : UTC 2013-05-11 21:17:21
Tagged date : UTC 2013-05-11 21:17:21

Audio
Format :
Format/Info : Advanced Audio Codec
Format version : Version 4
Format profile : LC
Format settings, SBR : No
Codec ID : 40
Duration : 9mn 6s
Bit rate mode : Variable
Bit rate : 157 Kbps
Channel(s) : 2 channels
Channel positions : L R
Sampling rate : 48.0 KHz
Resolution : 16 bits
Stream size : 10.2 MiB (8%)
Encoded date : UTC 2013-05-11 21:17:21
Tagged date : UTC 2013-05-11 21:17:21
Скріншоти



Джерело:
Особиста оцінка: 10 - без зайвих вагань рекомендую всім!


Золотий реліз (завантажене не впливає на рейтинг)
 Трекер:    Зареєстрований   

Завантажити / скачати мультфільм українською



відео для новачків



 Зареєстрований:   2015-04-16 21:40
 Розмір:   123 MB 
 Оцінка мультфільму:   7.8/10 (Голосів: 8)
   
wolesj 
VIP


З нами з: 15.07.12
Востаннє: 19.08.17
Повідомлень: 454

2015-04-16 23:14  
Дякую всім за підтримку релізу!
EvGaS 
Відео Гуртом - підтримка та поширення
Відео Гуртом - підтримка та поширення


З нами з: 27.02.12
Востаннє: 22.08.17
Повідомлень: 3347

2017-08-22 14:27  
Ваш часовий пояс: GMT + 2 Години

Нова тема   Відповісти