Будинок-монстр / Monster House (2006) 1080p Ukr/Eng | Sub Ukr/Multi

Нові коментарі

Нова тема   Відповісти
Автор Повідомлення
Anonymous 







2015-04-13 15:11  
Будинок-монстр / Monster House (2006) 1080p Ukr/Eng | Sub Ukr/Multi



Альтернативні та оригінальні постери




повнорозмірні скріншоти відкриваються по кліку (з натиснутим CTRL чи кліком середньою кнопкою мишки - у іншій вкладці)


Жанр: анімація, фентезі, комедія, детектив, сімейний
Країна: США



Кінокомпанія: Columbia Pictures, Relativity Media, ImageMovers, Amblin Entertainment, Sony Pictures Animation
Режисер: Джил Кенан / Gil Kenan
В оригіналі ролі озвучили: Мітчел Муссо / Mitchel Musso, Сем Лернер / Sam Lerner, Спенсер Лок / Spencer Locke, Стів Бушемі / Steve Buscemi, Нік Кеннон / Nick Cannon, Меггі Джиленгол / Maggie Gyllenhaal, Кевін Джеймс / Kevin James, Джейсон Лі / Jason Lee, Катерін О'Хара / Catherine O'Hara, Кетлін Тернер / Kathleen Turner, Фред Віллард / Fred Willard, Раян Ньоюман / Ryan Newman, Вуді Шульц / Woody Schultz та інші

Сюжет:
Добре бути хлопчаком. Кожен день, як усе життя! Стільки всього навколо: дівчата, морозиво, бійки, підручники, футбол. Насичений день, коротше, виходить. А от якщо ти одного разу виявив, що будинок, який стоїть по сусідству з будинком твоєї сім'ї - зовсім не будинок ... А простіше кажучи - монстр. Чудовисько, загалом. Отакі справи.

Ну от, історія ця про те, як три приятелі, ДіДжей, Чедер та Дженні, виявили, що будинок, що знаходиться неподалік, справжнісінький монстр. Тільки ніхто їм не вірив. Мало чого понавидумують діти ... Тільки даремно вони так. Хлопці їх попереджали ...


Рейтинг MPAA: PG - рекомендується присутність батьків
Вікова категорія: 10+

Тривалість: 01:30:38
Якість: 1080p
Відео:
кодек:
розмір кадру: 1920 х 800
бітрейт: 9485 кбіт/с [crf=17]

Аудіо # 1:
мова: українська
переклад: багатоголосий закадровий
кодек: 5.1
бітрейт: 448 кбіт/с

Аудіо # 2:
мова: англійська
переклад: оригінал
кодек: 5.1
бітрейт: 1509 кбіт/с

Аудіо # 3:
мова: англійська
переклад: коментарі
кодек: 2.0
бітрейт: 192 кбіт/с

Субтитри # 1:
мова: українська
тип: програмні (м'які)
формат: *.srt

Субтитри # 2-9:
мова: англійська, болгарська, чеська, грецька, угорська, румунська, іспанська, шведська
тип: програмні (м'які)
формат: *.srt

Збережено оригінальні розділи, як на Blu-ray.
Info
Код:
General
Unique ID                   : 188804030965683082876568006021446592809 (0x8E0A556C6E7289A9899B8EC83F0B6929)
Complete name               : Monster House (2006) [Ukr,Eng sub.Ukr,Multi] 1080p [Hurtom & HDClub].
Format                      :
Format version              : Version 4 / Version 2
File size                   : 7.52 GiB
Duration                    : 1h 30mn
Overall bit rate            : 11.9 Mbps
Movie name                  : Будинок-монстр / Monster House (2006) [Ukr,Eng sub.Ukr,Multi] 1080p [Hurtom & HDClub]
Encoded date                : UTC 2015-04-13 09:59:37
Writing application         : mkvmerge v7.8.0 ('River Man') 64bit built on Mar 27 2015 16:31:37
Writing library             : libebml v1.3.1 + libmatroska v1.4.2
DURATION                    : 01:23:56.000000000
NUMBER_OF_FRAMES            : 582
NUMBER_OF_BYTES             : 24783
_STATISTICS_WRITING_APP     : mkvmerge v7.8.0 ('River Man') 64bit built on Mar 27 2015 16:31:37
_STATISTICS_WRITING_DATE_UT : 2015-04-13 09:59:37
_STATISTICS_TAGS            : BPS DURATION NUMBER_OF_FRAMES NUMBER_OF_BYTES

Video
ID                          : 1
Format                      : AVC
Format/Info                 : Advanced Video Codec
Format profile              : [email protected]
Format settings, CABAC      : Yes
Format settings, ReFrames   : 5 frames
Codec ID                    : V_MPEG4/ISO/AVC
Duration                    : 1h 30mn
Bit rate                    : 9 485 Kbps
Width                       : 1 920 pixels
Height                      : 800 pixels
Display aspect ratio        : 2.40:1
Frame rate mode             : Constant
Frame rate                  : 23.976 fps
Color space                 : YUV
Chroma subsampling          : 4:2:0
Bit depth                   : 8 bits
Scan type                   : Progressive
Bits/(Pixel*Frame)          : 0.258
Stream size                 : 6.01 GiB (80%)
Title                       : Будинок-монстр / Monster House / Дом-монстр (2006) 1080p [СRiSC]
Writing library             : core 142 r2431+42 c69a006 tMod [[email protected]:2:0 X86_64]
Encoding settings           : cabac=1 / ref=5 / deblock=1:-3:-3 / analyse=0x3:0x133 / me=umh / subme=10 / psy=1 / fade_compensate=0.00 / psy_rd=1.00:0.00 / mixed_ref=1 / me_range=24 / chroma_me=1 / trellis=2 / 8x8dct=1 / cqm=0 / deadzone=21,11 / fast_pskip=1 / chroma_qp_offset=-2 / threads=12 / lookahead_threads=2 / sliced_threads=0 / nr=0 / decimate=1 / interlaced=0 / bluray_compat=0 / constrained_intra=0 / fgo=0 / bframes=8 / b_pyramid=2 / b_adapt=2 / b_bias=0 / direct=3 / weightb=1 / open_gop=0 / weightp=2 / keyint=250 / keyint_min=23 / scenecut=40 / intra_refresh=0 / rc_lookahead=60 / rc=crf / mbtree=0 / crf=17.0000 / qcomp=0.65 / qpmin=0:0:0 / qpmax=69:69:69 / qpstep=4 / vbv_maxrate=62500 / vbv_bufsize=78125 / crf_max=0.0 / nal_hrd=none / filler=0 / ip_ratio=1.30 / pb_ratio=1.20 / aq=4:0.85 / aq-sensitivity=10.00 / aq-factor=1.00:1.00:1.00 / aq2=0 / aq3=0
Language                    : English
Default                     : Yes
Forced                      : No
Matrix coefficients         : BT.709
Color range                 : Limited
DURATION                    : 01:30:38.392000000
NUMBER_OF_FRAMES            : 130391
NUMBER_OF_BYTES             : 6606049734
_STATISTICS_WRITING_APP     : mkvmerge v7.8.0 ('River Man') 64bit built on Mar 27 2015 16:31:37
_STATISTICS_WRITING_DATE_UT : 2015-04-13 09:59:37
_STATISTICS_TAGS            : BPS DURATION NUMBER_OF_FRAMES NUMBER_OF_BYTES

Audio #1
ID                          : 2
Format                      : AC-3
Format/Info                 : Audio Coding 3
Mode extension              : CM (complete main)
Format settings, Endianness : Big
Codec ID                    : A_AC3
Duration                    : 1h 30mn
Bit rate mode               : Constant
Bit rate                    : 448 Kbps
Channel(s)                  : 6 channels
Channel positions           : Front: L C R, Side: L R, LFE
Sampling rate               : 48.0 KHz
Bit depth                   : 16 bits
Compression mode            : Lossy
Stream size                 : 290 MiB (4%)
Title                       : MVO [K1] 5.1 448 kbps [Hurtom-Тирік]
Language                    : Ukrainian
Default                     : Yes
Forced                      : No

Audio #2
ID                          : 3
Format                      :
Format/Info                 : Digital Theater Systems
Mode                        : 16
Format settings, Endianness : Big
Codec ID                    : A_DTS
Duration                    : 1h 30mn
Bit rate mode               : Constant
Bit rate                    : 1 509 Kbps
Channel(s)                  : 6 channels
Channel positions           : Front: L C R, Side: L R, LFE
Sampling rate               : 48.0 KHz
Bit depth                   : 24 bits
Compression mode            : Lossy
Stream size                 : 978 MiB (13%)
Title                       : Original 5.1 1509 kbps
Language                    : English
Default                     : No
Forced                      : No

Audio #3
ID                          : 4
Format                      : AC-3
Format/Info                 : Audio Coding 3
Format profile              : Dolby Digital
Mode extension              : CM (complete main)
Format settings, Endianness : Big
Codec ID                    : A_AC3
Duration                    : 1h 30mn
Bit rate mode               : Constant
Bit rate                    : 192 Kbps
Channel(s)                  : 2 channels
Channel positions           : Front: L R
Sampling rate               : 48.0 KHz
Bit depth                   : 16 bits
Compression mode            : Lossy
Stream size                 : 124 MiB (2%)
Title                       : Commentary 2.0 192 kbps
Language                    : English
Default                     : No
Forced                      : No

Text #1
ID                          : 5
Format                      : UTF-8
Codec ID                    : S_TEXT/UTF8
Codec ID/Info               : UTF-8 Plain Text
Title                       : Ukr
Language                    : Ukrainian
Default                     : No
Forced                      : No

Text #2
ID                          : 6
Format                      : UTF-8
Codec ID                    : S_TEXT/UTF8
Codec ID/Info               : UTF-8 Plain Text
Title                       : Eng
Language                    : English
Default                     : No
Forced                      : No

Text #3
ID                          : 7
Format                      : UTF-8
Codec ID                    : S_TEXT/UTF8
Codec ID/Info               : UTF-8 Plain Text
Title                       : Bul
Language                    : Bulgarian
Default                     : No
Forced                      : No

Text #4
ID                          : 8
Format                      : UTF-8
Codec ID                    : S_TEXT/UTF8
Codec ID/Info               : UTF-8 Plain Text
Title                       : Cze
Language                    : Czech
Default                     : No
Forced                      : No

Text #5
ID                          : 9
Format                      : UTF-8
Codec ID                    : S_TEXT/UTF8
Codec ID/Info               : UTF-8 Plain Text
Title                       : Gre
Language                    : Greek
Default                     : No
Forced                      : No

Text #6
ID                          : 10
Format                      : UTF-8
Codec ID                    : S_TEXT/UTF8
Codec ID/Info               : UTF-8 Plain Text
Title                       : Hun
Language                    : Hungarian
Default                     : No
Forced                      : No

Text #7
ID                          : 11
Format                      : UTF-8
Codec ID                    : S_TEXT/UTF8
Codec ID/Info               : UTF-8 Plain Text
Title                       : Rum
Language                    : Romanian
Default                     : No
Forced                      : No

Text #8
ID                          : 12
Format                      : UTF-8
Codec ID                    : S_TEXT/UTF8
Codec ID/Info               : UTF-8 Plain Text
Title                       : Spa
Language                    : Spanish
Default                     : No
Forced                      : No

Text #9
ID                          : 13
Format                      : UTF-8
Codec ID                    : S_TEXT/UTF8
Codec ID/Info               : UTF-8 Plain Text
Title                       : Swe
Language                    : Swedish
Default                     : No
Forced                      : No

Menu
00:00:00.000                : :00:00:00.000
00:06:34.769                : :00:06:34.769
00:13:36.274                : :00:13:36.274
00:16:45.755                : :00:16:45.755
00:20:24.223                : :00:20:24.223
00:23:59.688                : :00:23:59.688
00:26:36.553                : :00:26:36.553
00:33:04.274                : :00:33:04.274
00:39:17.397                : :00:39:17.397
00:46:21.028                : :00:46:21.028
00:53:41.468                : :00:53:41.468
01:00:23.411                : :01:00:23.411
01:05:40.937                : :01:05:40.937
01:08:35.445                : :01:08:35.445
01:13:03.212                : :01:13:03.212
01:16:55.778                : :01:16:55.778
Оригінал <----------> Ріп









Джерела та подяки: &
ріп відео, оригінальні звук та субтитри - СRiSC (HDbits), madoff (HDClub); українська доріжка - Тирік - зведення, gig_Panas - запис з ТБ; українізовані постери - Тирік (обоє - Гуртом).


ЗАЛИШАЙТЕСЬ ЯКОМОГА ДОВШЕ НА РОЗДАЧІ!

СКАЧАВ САМ - ДАЙ СКАЧАТИ ІНШИМ


 Трекер:    Зареєстрований   

Завантажити / скачати мультфільм українською



відео для новачків



 Зареєстрований:   2015-04-13 15:11
 Розмір:   7.52 GB 
 Оцінка мультфільму:   5.4/10 (Голосів: 23)
   
Інші релізи
Ваш часовий пояс: GMT + 2 Години

Нова тема   Відповісти