Робота Голосом / Працюю голосом / Koe de Oshigoto! (1 з 2) 2010 [ 720p] Ukr/Jap

Нові коментарі

Нова тема   Відповісти
Автор Повідомлення
RobotaGolosom 
Відео Гуртом - фільмокрай
Відео Гуртом - фільмокрай


З нами з: 09.03.15
Востаннє: 17.08.17
Повідомлень: 160

2015-04-12 13:42  
Робота Голосом / Працюю голосом / Koe de Oshigoto! (1 з 2) 2010 [ 720p] Ukr/Jap

Робота Голосом / Працюю голосом / Koe de Oshigoto! (1 з 2) 2010 [ 720p] Ukr/Jap


Жанр: комедія, еччі, еротика
Країна: Японія

Кінокомпанія: Studio Gokumi
Режисер: Хосода Наото
Сюжет:
Ринок японських ероге перенасичений, і що ж повинна зробити маленька компанія «Голубий Травень», щоб конкурувати з акулами жанру? 28-річна Яйой Аояґі, лідер компанії, вважає, що рішення очевидне: їхнім козирем буде душевна і насичена гра сейю, яка зможе вдихнути життя в будь-який сюжет! Оскільки для будь-якого японця робота – це сім'я і життя, хитра Яйой мобілізує в лаври сейю, старшокласницю Канну, Дівчинку скромну, але з винятково багатою уявою.


Команда аматорського озвучення:«Робота Голосом»

Переклад: Sensetivity
Редактура: Demo, ZASE,Stacy Mccauley
Озвучення: Аясе, Стейсі Маккоул, Ейдж, Курка Аалямб
Робота зі звуком: Ейдж
Постер: Акула
Кординація проекту: Ейдж

Реліз виконано для Київського аніме-клубу«Міцурукі»

Тривалість: 1 серія: 30:08 (цілком серій: 2)
Перелік серій
01. Секрет в 16 років
Якість:
Відео:
кодек:
розмір кадру: 1280х720
бітрейт: 2547 кб/с

Аудіо # 1:
мова: українська
переклад: багатоголосий закадровий
кодек: 2.0
бітрейт: 640 кб/с

Аудіо # 2:
мова: японська
переклад: оригінал
кодек: 2.0
бітрейт: 640 кб/с
Info
General
Unique ID : 174879220085778762641118110822081695614 (0x8390833DC78637C4B81BDBE2D5F30F7E)
Complete name : Робота голосом - 01 - Секрет в 16 років.
Format :
Format version : Version 4 / Version 2
File size : 842 MiB
Duration : 30mn 8s
Overall bit rate : 3 905 Kbps
Encoded date : UTC 2015-04-08 12:03:52
Writing application : mkvmerge v7.7.0 ('Six Voices') 64bit built on Feb 28 2015 23:39:33
Writing library : libebml v1.3.1 + libmatroska v1.4.2
Attachements : BAARS_.TTF / BAARS__.TTF / BAARS___0.TTF / MAIAN.TTF / Napapiiri_0.ttf / nyala.ttf / nyala_0.ttf / Painty Paint.TTF / Palomino.ttf / ROCK.TTF / ROCKB.TTF / ROCKBI.TTF / ROCKI.TTF
DURATION : 00:30:08.832000000
NUMBER_OF_FRAMES : 56526
NUMBER_OF_BYTES : 144706560
_STATISTICS_WRITING_APP : mkvmerge v7.7.0 ('Six Voices') 64bit built on Feb 28 2015 23:39:33
_STATISTICS_WRITING_DATE_UTC : 2015-04-08 12:03:52
_STATISTICS_TAGS : BPS DURATION NUMBER_OF_FRAMES NUMBER_OF_BYTES

Video
ID : 1
Format : AVC
Format/Info : Advanced Video Codec
Format profile : [email protected]
Format settings, CABAC : Yes
Format settings, ReFrames : 8 frames
Codec ID : V_MPEG4/ISO/AVC
Duration : 30mn 8s
Bit rate : 2 547 Kbps
Width : 1 280 pixels
Height : 720 pixels
Display aspect ratio : 16:9
Frame rate mode : Constant
Frame rate : 23.976 fps
Color space : YUV
Chroma subsampling : 4:2:0
Bit depth : 8 bits
Scan type : Progressive
Bits/(Pixel*Frame) : 0.115
Stream size : 549 MiB (65%)
Writing library : core 107 r1745 4785e8e
Encoding settings : cabac=1 / ref=8 / deblock=1:-2:-2 / analyse=0x3:0x133 / me=umh / subme=9 / psy=1 / psy_rd=0.70:0.00 / mixed_ref=1 / me_range=32 / chroma_me=1 / trellis=2 / 8x8dct=1 / cqm=0 / deadzone=21,11 / fast_pskip=0 / chroma_qp_offset=-2 / threads=12 / sliced_threads=0 / nr=0 / decimate=0 / interlaced=0 / constrained_intra=0 / bframes=10 / b_pyramid=2 / b_adapt=2 / b_bias=0 / direct=1 / weightb=1 / open_gop=0 / weightp=2 / keyint=250 / keyint_min=23 / scenecut=40 / intra_refresh=0 / rc=crf / mbtree=0 / crf=14.0 / qcomp=0.75 / qpmin=9 / qpmax=20 / qpstep=4 / ip_ratio=1.40 / pb_ratio=1.30 / aq=1:0.90
Language : English
Default : Yes
Forced : No
DURATION : 00:30:08.807000000
NUMBER_OF_FRAMES : 43368
NUMBER_OF_BYTES : 591484528
_STATISTICS_WRITING_APP : mkvmerge v7.7.0 ('Six Voices') 64bit built on Feb 28 2015 23:39:33
_STATISTICS_WRITING_DATE_UTC : 2015-04-08 12:03:52
_STATISTICS_TAGS : BPS DURATION NUMBER_OF_FRAMES NUMBER_OF_BYTES

Audio #1
ID : 2
Format : AC-3
Format/Info : Audio Coding 3
Mode extension : CM (complete main)
Format settings, Endianness : Big
Codec ID : A_AC3
Duration : 30mn 8s
Bit rate mode : Constant
Bit rate : 640 Kbps
Channel(s) : 2 channels
Channel positions : Front: L R
Sampling rate : 48.0 KHz
Bit depth : 16 bits
Compression mode : Lossy
Stream size : 138 MiB (16%)
Title : Команда "Робота Голосом"
Language : Ukrainian
Default : Yes
Forced : No

Audio #2
ID : 3
Format : AC-3
Format/Info : Audio Coding 3
Mode extension : CM (complete main)
Format settings, Endianness : Big
Codec ID : A_AC3
Duration : 30mn 8s
Bit rate mode : Constant
Bit rate : 640 Kbps
Channel(s) : 2 channels
Channel positions : Front: L R
Sampling rate : 48.0 KHz
Bit depth : 16 bits
Compression mode : Lossy
Stream size : 138 MiB (16%)
Title : Origin
Language : Japanese
Default : No
Forced : No
Скріншоти


Джерело:


Авторський реліз (завантажувати можна без реєстрації)
 Трекер:    Зареєстрований   

Завантажити / скачати аніме українською



відео для новачків



 Зареєстрований:   2015-04-12 13:42
 Розмір:   842 MB 
 Оцінка аніме:   2/10 (Голосів: 1)
   
EvGaS 
Відео Гуртом - підтримка та поширення
Відео Гуртом - підтримка та поширення


З нами з: 27.02.12
Востаннє: 17.08.17
Повідомлень: 3331

2015-04-19 07:02  
Чого ж воно таке коротке?

+ "кіно про кіно в якому про гру про...." %)
+ перекладачі відтягнулись за повною, один позитив =)
-
і хоч один дорослий мульт зробили б без збочень, хоча тут мінімум, можна сказати навіть романтично

NeetScrool 
Відео Гуртом - фільмокрай
Відео Гуртом - фільмокрай


З нами з: 10.01.13
Востаннє: 17.08.17
Повідомлень: 2611

2015-04-19 08:45  
EvGaS
Psycho-pass уже дивилися?

EvGaS 
Відео Гуртом - підтримка та поширення
Відео Гуртом - підтримка та поширення


З нами з: 27.02.12
Востаннє: 17.08.17
Повідомлень: 3331

2015-04-19 17:05  
Цитата:
Psycho-pass уже дивилися?

Ще в черзі переглядів - десь наступними вихідними скоріш за все подивлюсь.

Цитата:
Чого ж воно таке коротке?

My bad - продовження мультсеріалу ще будуть робити.

Ваш часовий пояс: GMT + 2 Години

Нова тема   Відповісти