Таємне життя 4-літніх / The Secret Life Of 4 Year Olds (2014) 720p Eng | Sub Ukr

Нові коментарі

Нова тема   Відповісти
Автор Повідомлення
wolesj 
VIP


З нами з: 15.07.12
Востаннє: 22.10.17
Повідомлень: 462

2015-04-01 21:46  
Таємне життя 4-літніх / The Secret Life Of 4 Year Olds (2014) 720p Eng | Sub Ukr

Таємне життя 4-літніх / The Secret Life Of 4 Year Olds (2014) 720p Eng | Sub Ukr


Жанр: документальний, сімейний, психологічний
Країна: Велика Британія

Офіційний сайт: www.channel4.com

Кінокомпанія: RDF Television, a Zodiak Media company спільно з Wellcometrust для Channel 4
Режисер: Гарджіт Чоккар, Едвард Келлі
Актори: Кристіан, Хаїм, Еная, Люк, Скайла, Джессіка, Куба, Джейда, Оллі, Саймон й інші діти, батьки та вихователі

Сюжет:
Документальне дослідження світу 4-літніх малюків. Встановлені в дитячому садку камери фіксують кожний погляд, шепіт, суперечки та емоції групи дітей. Спостерігають за ними і коментують два експерти - освітній нейробіолог Пол Говард Джонс та фахівець з вікової психології Сем Восс.


Тривалість: 00:47:24
Якість:
Відео:
кодек:
розмір кадру: 1280x720
бітрейт: 2 994 кб/с

Аудіо:
мова: англійська
переклад: оригінал
кодек: 2.0
бітрейт: 160 кб/с

Субтитри:
мова: українська (власний переклад з англійської)
тип: програмні (м'які)
формат: *.srt

Субтитри:
мова: англійська
тип: програмні (м'які)
формат: *.srt

Субтитри:
мова: англійська
тип: вбудовані (жорсткі) на окремі дитячі репліки
Info
The Secret Life Of 4 Year Olds (2014) 720p.mp4
Format : MPEG-4
Format profile : Base Media
Codec ID : isom
File size : 1.05 GiB
Duration : 47mn 24s
Overall bit rate : 3 159 Kbps
Encoded date : UTC 2015-02-11 11:18:01
Tagged date : UTC 2015-02-11 11:18:01
Writing application : Lavf51.12.1

Video
Format : AVC
Format/Info : Advanced Video Codec
Format profile : [email protected]
Format settings, CABAC : No
Format settings, ReFrames : 1 frame
Codec ID : avc1
Codec ID/Info : Advanced Video Coding
Duration : 47mn 24s
Bit rate mode : Variable
Bit rate : 2 994 Kbps
Width : 1 280 pixels
Height : 720 pixels
Display aspect ratio : 16/9
Frame rate mode : Variable
Frame rate : 25.000 fps
Resolution : 24 bits
Colorimetry : 4:2:0
Scan type : Progressive
Bits/(Pixel*Frame) : 0.130
Stream size : 1 015 MiB (95%)
Encoded date : UTC 2015-02-11 11:18:01
Tagged date : UTC 2015-02-11 11:18:01

Audio
Format :
Format/Info : Advanced Audio Codec
Format version : Version 4
Format profile : LC
Format settings, SBR : No
Codec ID : 40
Duration : 47mn 24s
Bit rate mode : Variable
Bit rate : 160 Kbps
Channel(s) : 2 channels
Channel positions : L R
Sampling rate : 48.0 KHz
Resolution : 16 bits
Stream size : 54.2 MiB (5%)
Language : English
Encoded date : UTC 2015-02-11 11:18:01
Tagged date : UTC 2015-02-11 11:18:01
Скріншоти









Джерело: MVGroup
Особиста оцінка: 9 - рекомендується батькам, педагогам і всім небайдужим


Золотий реліз (завантажене не впливає на рейтинг)
 Трекер:    Зареєстрований   

Завантажити / скачати фільм українською



відео для новачків



 Зареєстрований:   2015-04-01 21:46
 Розмір:   1.05 GB 
 Оцінка фільму:   9.4/10 (Голосів: 5)
   
welcome_back_15 
Забанено
Забанено


З нами з: 27.11.14
Востаннє: 24.07.15
Повідомлень: 319

2015-04-01 22:44  
wolesj написано:
бітрейт: 1536 кб/с

Скоріше за все, має бути 160 кбіт/с.

orchard 
Новенький


З нами з: 02.06.15
Востаннє: 22.10.17
Повідомлень: 7

2015-06-08 20:54  
Цікаво буде показати цей фільм піддослідним дітям коли вони подорослішають.
Ваш часовий пояс: GMT + 2 Години

Нова тема   Відповісти