Секрет Келсу / The Secret of Kells (2009) 1080p Eng | Sub Ukr

Нові коментарі

Нова тема   Відповісти
Автор Повідомлення
Gedet 
Відео Гуртом - субтитрування
Відео Гуртом - субтитрування


З нами з: 17.11.11
Востаннє: 17.05.17
Повідомлень: 1798

2015-04-01 01:48  
Секрет Келсу / The Secret of Kells (2009) 1080p Eng | Sub Ukr

Секрет Келсу / The Secret of Kells (2009) 1080p Eng | Sub Ukr


Жанр: Казка, пригоди, сімейний, фентезі
Країна: Франція, Бельгія, Ірландія



Кінокомпанія: Картун салун, Лес арматерс, Франсе 2
Режисер: Том Мур, Нора Твомей
Актори: Брендан Ґлісон, Лаям Гурікан, Майк Лалі, Майкл Мак Ґрет, Еван Мак Ґвайр, Крістен Муні, Пол Тілак, Пол Юн

Сюжет:
Ірландія 8-9 століття, у період нападу варягів на ці краї. Бьрянден, що живе в Абастві Келс, вчиться справі ілюстраторів. Але все змінються, коли до них приходить таємничий ченець із Іона. Він показує Бьряндену прекрасну книгу, яка обертає темряву на пітьму. І з допомогою неї він повинен освітити шлях людей крізь ці темні віки.


Тривалість: 01:18:00
Якість:
Відео:
кодек:
розмір кадру: 1920х1080
бітрейт: 6942 кб/с

Аудіо:
мова: англійська
переклад: оригінал
кодек: 5.1
бітрейт: 1509 кб/с

Субтитри:
мова: українська
тип: програмні (м'які)
формат: *.ass переклад: Ґедет
Info
General
Unique ID : 208968301572028372518196959603807103659 (0x9D35D4B8A6543EC581081A14C4DE2AAB)
Complete name : D:\The Secret of Kells 2009 1080p \The Secret of Kells 2009 1080p .
Format :
Format version : Version 4 / Version 2
File size : 4.75 GiB
Duration : 1h 18mn
Overall bit rate : 8 623 Kbps
Encoded date : UTC 2015-03-31 18:51:53
Writing application : mkvmerge v7.8.0 ('River Man') 64bit built on Mar 27 2015 16:31:37
Writing library : libebml v1.3.1 + libmatroska v1.4.2
DURATION : 01:18:46.849000000
NUMBER_OF_FRAMES : 443143
NUMBER_OF_BYTES : 891603716
_STATISTICS_WRITING_APP : mkvmerge v7.8.0 ('River Man') 64bit built on Mar 27 2015 16:31:37
_STATISTICS_WRITING_DATE_UTC : 2015-03-31 18:51:53
_STATISTICS_TAGS : BPS DURATION NUMBER_OF_FRAMES NUMBER_OF_BYTES

Video
ID : 1
Format : AVC
Format/Info : Advanced Video Codec
Format profile : [email protected]
Format settings, CABAC : Yes
Format settings, ReFrames : 4 frames
Codec ID : V_MPEG4/ISO/AVC
Duration : 1h 18mn
Bit rate : 6 942 Kbps
Width : 1 920 pixels
Height : 1 080 pixels
Display aspect ratio : 16:9
Frame rate mode : Constant
Frame rate : 23.976 fps
Color space : YUV
Chroma subsampling : 4:2:0
Bit depth : 8 bits
Scan type : Progressive
Bits/(Pixel*Frame) : 0.140
Stream size : 3.82 GiB (81%)
Title : The Secret of Kells 2009 1080p multisub-HighCode
Writing library : core 130 r2273 b3065e6
Encoding settings : cabac=1 / ref=4 / deblock=1:-3:-3 / analyse=0x3:0x133 / me=umh / subme=11 / psy=1 / psy_rd=1.10:0.05 / mixed_ref=1 / me_range=32 / chroma_me=1 / trellis=2 / 8x8dct=1 / cqm=0 / deadzone=21,11 / fast_pskip=0 / chroma_qp_offset=-3 / threads=12 / lookahead_threads=1 / sliced_threads=0 / nr=0 / decimate=1 / interlaced=0 / bluray_compat=0 / constrained_intra=0 / bframes=5 / b_pyramid=2 / b_adapt=2 / b_bias=0 / direct=3 / weightb=1 / open_gop=0 / weightp=2 / keyint=240 / keyint_min=24 / scenecut=40 / intra_refresh=0 / rc_lookahead=180 / rc=crf / mbtree=1 / crf=17.3 / qcomp=0.68 / qpmin=0 / qpmax=69 / qpstep=4 / ip_ratio=1.40 / aq=1:1.20
Language : English
Default : Yes
Forced : No
Color primaries : BT.709
Transfer characteristics : BT.709
Matrix coefficients : BT.709

Audio
ID : 2
Format :
Format/Info : Digital Theater Systems
Mode : 16
Format settings, Endianness : Big
Codec ID : A_DTS
Duration : 1h 18mn
Bit rate mode : Constant
Bit rate : 1 509 Kbps
Channel(s) : 6 channels
Channel positions : Front: L C R, Side: L R, LFE
Sampling rate : 48.0 KHz
Bit depth : 24 bits
Compression mode : Lossy
Delay relative to video : 10ms
Stream size : 850 MiB (17%)
Title : 5.1 @1500
Language : English
Default : Yes
Forced : No
Скріншоти
















Золотий реліз (завантажене не впливає на рейтинг)
 Трекер:    Зареєстрований   

Завантажити / скачати мультфільм українською



відео для новачків



 Зареєстрований:   2015-04-01 01:48
 Розмір:   4.75 GB 
 Оцінка мультфільму:   10/10 (Голосів: 7)
   
Інші релізи
igor911 
Відео Гуртом
Відео Гуртом


З нами з: 18.01.08
Востаннє: 22.08.17
Повідомлень: 7321

2015-04-01 06:58  
Gedet, важко було ще й українську доріжку додати?
Gedet 
Відео Гуртом - субтитрування
Відео Гуртом - субтитрування


З нами з: 17.11.11
Востаннє: 17.05.17
Повідомлень: 1798

2015-04-03 00:27  
А українська доріжка існує?
igor911 
Відео Гуртом
Відео Гуртом


З нами з: 18.01.08
Востаннє: 22.08.17
Повідомлень: 7321

2015-04-03 00:32  
а як же, ще в 2010 році озвучено студією Три крапки.
https://toloka.to/tracker.php?nm=The+Secret+of+Kells

Додано через 1 хвилину 50 секунд:

https://toloka.to/t14166#189514

Gedet 
Відео Гуртом - субтитрування
Відео Гуртом - субтитрування


З нами з: 17.11.11
Востаннє: 17.05.17
Повідомлень: 1798

2015-04-03 00:38  
Вау, а чого я маю додавати до своїх сабів роботу аматорської групи? Якби було озвучення каналу, то би додав.
igor911 
Відео Гуртом
Відео Гуртом


З нами з: 18.01.08
Востаннє: 22.08.17
Повідомлень: 7321

2015-04-03 00:41  
Спочатку треба ознайомитись хоча б, та озвучка на дуже пристойному рівні виконана.

Додано через 45 секунд:

я розумію, головне потішити власне его

Gedet 
Відео Гуртом - субтитрування
Відео Гуртом - субтитрування


З нами з: 17.11.11
Востаннє: 17.05.17
Повідомлень: 1798

2015-04-03 00:43  
Вона в мене є завантажена на компі. Вона відверто слабка. А від дядя мене нудить просто. Не лізьте до мого еґо, бо взагалі тут нічого не викладатиму.
igor911 
Відео Гуртом
Відео Гуртом


З нами з: 18.01.08
Востаннє: 22.08.17
Повідомлень: 7321

2015-04-03 00:46  
Gedet написано:
А українська доріжка існує?

ще й придурюєшся

Додано через 1 хвилину 6 секунд:

Gedet написано:
Вона в мене є завантажена на компі.

Gedet 
Відео Гуртом - субтитрування
Відео Гуртом - субтитрування


З нами з: 17.11.11
Востаннє: 17.05.17
Повідомлень: 1798

2015-04-03 00:52  
Слухайте, то чого тоді Толока озвучує мультики, до яких є аматорське озвучення? Вони ж такі прекрасні й чудові. І під "українською доріжкою" нормальні люди розуміють запис із кінотеатру чи каналу.

Додано через 54 секунди:

І на "ти" до мене не звертайтеся. Ви, ніби, модератор. Майте гонору трохи.

-VJ- 
VIP


З нами з: 01.11.09
Востаннє: 21.08.17
Повідомлень: 613

2015-04-03 21:46  
Gedet написано:
чого тоді Толока озвучує мультики, до яких є аматорське озвучення?


ну так всі такі озвучки ліпляться до одного відео в одну роздачу, так і з'являються роздачі, де по три українські доріжки - Вам натякали саме про це Wink (1)

Ваш часовий пояс: GMT + 2 Години

Нова тема   Відповісти