Пісня моря / Song of the Sea (2014) 720p-mini Eng | Sub Ukr

Нові коментарі

Нова тема   Відповісти
Останній раз роздавалося Marynasya (2017-08-13)
Автор Повідомлення
Gedet 
Відео Гуртом - субтитрування
Відео Гуртом - субтитрування


З нами з: 17.11.11
Востаннє: 17.05.17
Повідомлень: 1798

2015-03-24 22:44  
Пісня моря / Song of the Sea (2014) 720p-mini Eng | Sub Ukr

Пісня моря / Song of the Sea (2014) 720p-mini Eng | Sub Ukr


Жанр: пригоди, фантастика, казки
Країна: Ірландія, Данія, Бельгія, Люксембург, Франція



Кінокомпанія: Біґ Фем, Катун Салун
Режисер: Том Мур
Актори: Брендан Ґлісон, Фінола Фленаґан, Ліза Геніґен, Джон Кені

Сюжет:
Сиршє і її молодший брат потрапляють у вир пригод, заради того, аби врятувати усіх фей від підступних чар Сови-відьми Махи.


Тривалість: 01:33:59
Якість: 720p
Відео:
кодек:
розмір кадру: 1280X688
бітрейт: 2518 кб/с

Аудіо:
мова: англійська
переклад: оригінал
кодек: 5.1
бітрейт: 1509 кб/с

Субтитри:
мова: українська
тип: програмні (м'які)
формат: *.ass
переклад: Ґедет
Info
General
Unique ID : 213962332338498290012325291059836687267 (0xA0F7A572BF797F73873F0B6D621D13A3)
Complete name : D:\Пісня_моря__2014_720р\Song.of.the.Sea.2014.LIMITED...
Format :
Format version : Version 4 / Version 2
File size : 2.65 GiB
Duration : 1h 33mn
Overall bit rate : 4 030 Kbps
Encoded date : UTC 2015-03-24 13:22:44
Writing application : mkvmerge v7.2.0 ('On Every Street') 64bit built on Sep 13 2014 15:52:10
Writing library : libebml v1.3.0 + libmatroska v1.4.1
DURATION : 01:33:59.595000000
NUMBER_OF_FRAMES : 528712
NUMBER_OF_BYTES : 1063768544
_STATISTICS_WRITING_APP : mkvmerge v7.2.0 ('On Every Street') 64bit built on Sep 13 2014 15:52:10
_STATISTICS_WRITING_DATE_UTC : 2015-03-24 13:22:44
_STATISTICS_TAGS : BPS DURATION NUMBER_OF_FRAMES NUMBER_OF_BYTES
Attachment : Yes

Video
ID : 1
Format : AVC
Format/Info : Advanced Video Codec
Format profile : [email protected]
Format settings, CABAC : Yes
Format settings, ReFrames : 5 frames
Codec ID : V_MPEG4/ISO/AVC
Duration : 1h 33mn
Bit rate : 2 518 Kbps
Width : 1 280 pixels
Height : 688 pixels
Display aspect ratio : 1.85:1
Frame rate mode : Constant
Frame rate : 23.976 fps
Color space : YUV
Chroma subsampling : 4:2:0
Bit depth : 8 bits
Scan type : Progressive
Bits/(Pixel*Frame) : 0.119
Stream size : 1.60 GiB (61%)
Writing library : core 146 r2538 121396c
Encoding settings : cabac=1 / ref=5 / deblock=1:-3:-3 / analyse=0x3:0x113 / me=umh / subme=8 / psy=1 / psy_rd=1.00:0.00 / mixed_ref=1 / me_range=16 / chroma_me=1 / trellis=1 / 8x8dct=1 / cqm=0 / deadzone=21,11 / fast_pskip=1 / chroma_qp_offset=-2 / threads=12 / lookahead_threads=2 / sliced_threads=0 / nr=0 / decimate=1 / interlaced=0 / bluray_compat=0 / constrained_intra=0 / bframes=3 / b_pyramid=2 / b_adapt=2 / b_bias=0 / direct=3 / weightb=1 / open_gop=0 / weightp=2 / keyint=240 / keyint_min=24 / scenecut=40 / intra_refresh=0 / rc_lookahead=50 / rc=2pass / mbtree=1 / bitrate=2518 / ratetol=1.0 / qcomp=0.60 / qpmin=0 / qpmax=69 / qpstep=4 / cplxblur=20.0 / qblur=0.5 / ip_ratio=1.40 / aq=1:1.00
Language : English
Default : Yes
Forced : No
DURATION : 01:33:59.593000000
NUMBER_OF_FRAMES : 135215
NUMBER_OF_BYTES : 1774920726
_STATISTICS_WRITING_APP : mkvmerge v7.2.0 ('On Every Street') 64bit built on Sep 13 2014 15:52:10
_STATISTICS_WRITING_DATE_UTC : 2015-03-24 13:22:44
_STATISTICS_TAGS : BPS DURATION NUMBER_OF_FRAMES NUMBER_OF_BYTES

Audio
ID : 2
Format :
Format/Info : Digital Theater Systems
Mode : 16
Format settings, Endianness : Big
Codec ID : A_DTS
Duration : 1h 33mn
Bit rate mode : Constant
Bit rate : 1 509 Kbps
Channel(s) : 6 channels
Channel positions : Front: L C R, Side: L R, LFE
Sampling rate : 48.0 KHz
Bit depth : 24 bits
Compression mode : Lossy
Stream size : 1 014 MiB (37%)
Language : English
Default : Yes
Forced : No
Скріншоти






Особиста оцінка: 10 - без зайвих вагань рекомендую всім!


Золотий реліз (завантажене не впливає на рейтинг)
 Трекер:    Зареєстрований   

Завантажити / скачати мультфільм українською



відео для новачків



 Зареєстрований:   2015-03-24 22:44
 Розмір:   2.65 GB 
 Оцінка мультфільму:   7.8/10 (Голосів: 5)
   
Інші релізи
   Пісня моря / Song of the Sea (2014) Remux Ukr/Eng | sub Ukr/Eng Omikron  5 / 0   25.95 GB   2015-05-06 22:03 
   Пісня моря / Song of the Sea (2014) 1080p Ukr/Eng | sub Ukr/Eng Omikron  11 / 0   7.82 GB   2015-05-06 21:51 
   Пісня моря / Song of the Sea (2014) Omikron  18 / 0   1.45 GB   2015-05-02 21:40 
   Пісня моря / Song of the Sea (2014) 720p Ukr/Eng | sub Eng Omikron  23 / 0   2.34 GB   2015-05-02 21:39 
   Пісня моря / Song of the Sea (2014) 1080p Eng | Sub Ukr Gedet  5 / 0   4.37 GB   2015-03-24 22:46 
   Пісня моря / Song of the Sea (2014) Eng | sub Ukr химерка  2 / 0   1.41 GB   2015-03-23 11:01 
igor911 
Відео Гуртом
Відео Гуртом


З нами з: 18.01.08
Востаннє: 20.08.17
Повідомлень: 7291

2015-03-24 23:09  
Gedet написано:
Bits/(Pixel*Frame) : 0.119

Додаток до релізів в якості HD написано:
mini - це релізи, в яких значення Bits/(Pixel*Frame) менше, ніж 0.16, для анімації - 0.12

Gedet 
Відео Гуртом - субтитрування
Відео Гуртом - субтитрування


З нами з: 17.11.11
Востаннє: 17.05.17
Повідомлень: 1798

2015-03-24 23:16  
най буде міні.Happy
Zag. 
Свій


З нами з: 06.06.14
Востаннє: 17.08.17
Повідомлень: 139

2015-04-22 13:40  
А нашого перекладу немає? Тільки сабиSad (1)
Бо псячою є...

igor911 
Відео Гуртом
Відео Гуртом


З нами з: 18.01.08
Востаннє: 20.08.17
Повідомлень: 7291

2015-04-22 14:02  
Zag., озвучення замовлено. Треба допомогти грошима - і все буде. Детальніше -Озвучення фільмів українською. 12 тур
Zag. 
Свій


З нами з: 06.06.14
Востаннє: 17.08.17
Повідомлень: 139

2015-04-22 14:09  
igor911
дякую, не знав! З зарплатні покладу трохи грошенят.

Ваш часовий пояс: GMT + 2 Години

Нова тема   Відповісти