Кришталик і пінгвін / The Pebble and the Penguin (1995) 720p Ukr/Eng | Sub Eng

Нові коментарі

Нова тема   Відповісти
Автор Повідомлення
Anonymous 







2015-03-20 08:31  
Кришталик і пінгвін / The Pebble and the Penguin (1995) 720p Ukr/Eng | Sub Eng



Жанр: мультфільм, мюзикл, мелодрама, комедія, пригодницький, сімейний
Країна: Ірландія, США



Кінокомпанія: Metro-Goldwyn-Mayer (MGM), Don Bluth Ireland
Режисер: Дон Блат / Don Bluth, Гарі Голдман / Gary Goldman
Актори: Мартін Шот, Енні Голден, Джеймс Белуші, Тім Каррі, Алісса Кінг, Стеві Волленс, Вілл Раян, Неіл Росс, Стен Джонс, С. Скотт Баллок, Філіп Л. Кларк, Шані Волліс, Хамільтон Кемп.

Сюжет:
Шлюбна церемонія в повний місяць вимагає, щоб всі птахи-женихи піднесли своїм обраницям який-небудь особливий камінь. Сором'язливий, з добрим серцем, пінгвін Х'юбі знайшов дивовижний кришталик для своєї коханої. Але у Марини є ще один прихильник - злий пінгвін Дрейк, який дуже хоче позбутися суперника і заволодіти кришталиком. Але якщо мова йде про справжнє кохання, то не камінь підкорить серце коханої.


Рейтинг MPAA: G - нема вікових обмежень
Вікова категорія: 0+

Тривалість: 01:14:04
Якість: 720p [СRiSC]
Відео:
кодек:
розмір кадру: 1280 х 694
бітрейт: 9816 кбіт/с [crf=17.5]

Аудіо # 1:
мова: українська
переклад: багатоголосий закадровий
кодек: 2.0
бітрейт: 192 кбіт/с

Аудіо # 2:
мова: англійська
переклад: оригінал
кодек: 5.0
бітрейт: 1509 кбіт/с

Субтитри:
мова: англійська
тип: програмні (м'які)
формат: *.srt

Збережено оригінальні розділи, як на Blu-ray.
Info
Код:
General
Unique ID                   : 214601034816349276035519273709899785947 (0xA172A7E962AD69BEB69095A27FF2A6DB)
Complete name               : The Pebble and the Penguin (1995) [Ukr,Eng sub.Eng] 720p [Hurtom & HDClub].
Format                      :
Format version              : Version 4 / Version 2
File size                   : 6.08 GiB
Duration                    : 1h 14mn
Overall bit rate            : 11.8 Mbps
Movie name                  : Кришталик і пінгвін / The Pebble and the Penguin (1995) [Ukr,Eng sub.Eng] 720p [Hurtom & HDClub]
Encoded date                : UTC 2015-03-19 18:15:51
Writing application         : mkvmerge v7.7.0 ('Six Voices') 64bit built on Feb 28 2015 23:39:33
Writing library             : libebml v1.3.1 + libmatroska v1.4.2
DURATION                    : 01:06:34.908000000
NUMBER_OF_FRAMES            : 748
NUMBER_OF_BYTES             : 25151
_STATISTICS_WRITING_APP     : mkvmerge v7.7.0 ('Six Voices') 64bit built on Feb 28 2015 23:39:33
_STATISTICS_WRITING_DATE_UT : 2015-03-19 18:15:51
_STATISTICS_TAGS            : BPS DURATION NUMBER_OF_FRAMES NUMBER_OF_BYTES

Video
ID                          : 1
Format                      : AVC
Format/Info                 : Advanced Video Codec
Format profile              : [email protected]
Format settings, CABAC      : Yes
Format settings, ReFrames   : 9 frames
Codec ID                    : V_MPEG4/ISO/AVC
Duration                    : 1h 14mn
Bit rate                    : 9 816 Kbps
Width                       : 1 280 pixels
Height                      : 694 pixels
Display aspect ratio        : 1.85:1
Frame rate mode             : Constant
Frame rate                  : 23.976 fps
Color space                 : YUV
Chroma subsampling          : 4:2:0
Bit depth                   : 8 bits
Scan type                   : Progressive
Bits/(Pixel*Frame)          : 0.461
Stream size                 : 5.08 GiB (84%)
Title                       : Кришталик і пінгвін / The Pebble and the Penguin / Хрусталик и пингвин (1995) 720p [СRiSC]
Writing library             : core 142 r2431+42 c69a006 tMod [[email protected]:2:0 X86_64]
Encoding settings           : cabac=1 / ref=9 / deblock=1:-3:-3 / analyse=0x3:0x133 / me=umh / subme=10 / psy=1 / fade_compensate=0.00 / psy_rd=1.00:0.00 / mixed_ref=1 / me_range=24 / chroma_me=1 / trellis=2 / 8x8dct=1 / cqm=0 / deadzone=21,11 / fast_pskip=1 / chroma_qp_offset=-2 / threads=12 / lookahead_threads=2 / sliced_threads=0 / nr=0 / decimate=1 / interlaced=0 / bluray_compat=0 / constrained_intra=0 / fgo=0 / bframes=7 / b_pyramid=2 / b_adapt=2 / b_bias=0 / direct=3 / weightb=1 / open_gop=0 / weightp=2 / keyint=250 / keyint_min=23 / scenecut=40 / intra_refresh=0 / rc_lookahead=60 / rc=crf / mbtree=0 / crf=17.5000 / qcomp=0.65 / qpmin=0:0:0 / qpmax=69:69:69 / qpstep=4 / vbv_maxrate=62500 / vbv_bufsize=78125 / crf_max=0.0 / nal_hrd=none / filler=0 / ip_ratio=1.30 / pb_ratio=1.20 / aq=4:0.85 / aq-sensitivity=10.00 / aq-factor=1.00:1.00:1.00 / aq2=0 / aq3=0
Language                    : English
Default                     : Yes
Forced                      : No
Matrix coefficients         : BT.709
Color range                 : Limited
DURATION                    : 01:14:04.315000000
NUMBER_OF_FRAMES            : 106557
NUMBER_OF_BYTES             : 5581732868
_STATISTICS_WRITING_APP     : mkvmerge v7.7.0 ('Six Voices') 64bit built on Feb 28 2015 23:39:33
_STATISTICS_WRITING_DATE_UT : 2015-03-19 18:15:51
_STATISTICS_TAGS            : BPS DURATION NUMBER_OF_FRAMES NUMBER_OF_BYTES

Audio #1
ID                          : 2
Format                      : AC-3
Format/Info                 : Audio Coding 3
Mode extension              : CM (complete main)
Format settings, Endianness : Big
Codec ID                    : A_AC3
Duration                    : 1h 14mn
Bit rate mode               : Constant
Bit rate                    : 192 Kbps
Channel(s)                  : 2 channels
Channel positions           : Front: L R
Sampling rate               : 48.0 KHz
Bit depth                   : 16 bits
Compression mode            : Lossy
Stream size                 : 102 MiB (2%)
Title                       : MVO [1+1] 2.0 192 kbps [Hurtom-MutuLI]
Language                    : Ukrainian
Default                     : Yes
Forced                      : No

Audio #2
ID                          : 3
Format                      :
Format/Info                 : Digital Theater Systems
Mode                        : 16
Format settings, Endianness : Big
Codec ID                    : A_DTS
Duration                    : 1h 14mn
Bit rate mode               : Constant
Bit rate                    : 1 509 Kbps
Channel(s)                  : 5 channels
Channel positions           : Front: L C R, Side: L R
Sampling rate               : 48.0 KHz
Bit depth                   : 24 bits
Compression mode            : Lossy
Stream size                 : 799 MiB (13%)
Title                       : Original 5.0 1509 kbps
Language                    : English
Default                     : No
Forced                      : No

Text
ID                          : 4
Format                      : UTF-8
Codec ID                    : S_TEXT/UTF8
Codec ID/Info               : UTF-8 Plain Text
Language                    : English
Default                     : No
Forced                      : No

Menu
00:00:00.000                : :00:00:00.000
00:05:23.406                : :00:05:23.406
00:08:10.447                : :00:08:10.447
00:11:08.958                : :00:11:08.958
00:16:22.105                : :00:16:22.105
00:19:49.313                : :00:19:49.313
00:22:08.451                : :00:22:08.451
00:25:09.007                : :00:25:09.007
00:27:41.785                : :00:27:41.785
00:33:30.173                : :00:33:30.173
00:35:05.686                : :00:35:05.686
00:39:04.300                : :00:39:04.300
00:41:39.954                : :00:41:39.954
00:44:46.809                : :00:44:46.809
00:47:12.538                : :00:47:12.538
00:51:09.023                : :00:51:09.023
00:55:18.815                : :00:55:18.815
01:00:19.824                : :01:00:19.824
01:03:42.777                : :01:03:42.777
01:07:44.351                : :01:07:44.351




Джерела та подяки: &
ріп відео, оригінальні звук та субтитри - СRiSC (HDbits), madoff (HDClub); українська доріжка - MutuLI - зведення, DareDevil96 - запис з ТБ (обоє - Гуртом).


ЗАЛИШАЙТЕСЬ ЯКОМОГА ДОВШЕ НА РОЗДАЧІ!

СКАЧАВ САМ - ДАЙ СКАЧАТИ ІНШИМ


Срібний реліз (на рейтинг впливає 50% завантаженого)
 Трекер:    Зареєстрований   

Завантажити / скачати мультфільм українською



відео для новачків



 Зареєстрований:   2015-03-20 08:31
 Розмір:   6.08 GB 
 Оцінка мультфільму:   1.8/10 (Голосів: 11)
   
Інші релізи
Ваш часовий пояс: GMT + 2 Години

Нова тема   Відповісти