Замбезія / Zambezia (2012) 1080p 3D [Half OverUnder] Ukr/Eng | Sub Eng

Нові коментарі

Нова тема   Відповісти
Автор Повідомлення
Anonymous 







2015-03-18 21:45  
Замбезія / Zambezia (2012) 1080p 3D [Half OverUnder] Ukr/Eng | Sub Eng



Жанр: анімаційний, комедія, пригодницький, сімейний
Країна: Південна Африка



Кіностудія / кінокомпанія: Cinema Management Group, The Department of Trade and Industry of South Africa, The National Film and Video Foundation of SA
Режисер: Вейн Торнлі / Wayne Thornley
В оригіналі ролі озвучили: Леонард Німой / Leonard Nimoy, Ебігейл Бреслін / Abigail Breslin, Джеремі Суарес / Jeremy Suarez, Джеф Голдблюм / Jeff Goldblum, Семюель Л. Джексон / Samuel L. Jackson, Дженіфер Льюіс / Jenifer Lewis, Джим Каммінгс / Jim Cummings, Ямал Міксон / Jamal Mixon, Річард Е. Грант / Richard E. Grant, Девід Шонессі / David Shaughnessy, Норін ДеВулф / Noureen DeWulf, Корі Бертон / Corey Burton та інші

Сюжет:
У мультфільмі розповідається історія життя юного соколятка Кайа, його пригоди, характер, комічні ситуації, у які він потрапляє на шляху до своєї головної мети, на шляху до заповітного пташиного містечка Замбезія, у якому він від щирого серця бажає відшукати нових друзів, які б позбавили його самотністі і не залишили у біді. Але для початку йому необхідно подолати шлях, який сповнений небезпек і несподіваних поворотів.


Рейтинг MPAA: G - нема вікових обмежень
Вікова категорія: 0+

Тривалість: 01:22:26
Якість: 1080p 3D [Half OverUnder]
Відео: (джерело - ZAMBEZIA BD3D BLUEBIRD)
кодек:
розмір кадру: 1920x1080
бітрейт: 6060 кбіт/с

Аудіо # 1:
мова: українська
переклад: професійний дубльований
кодек: 2.0
бітрейт: 192 кбіт/с
Інформація про дубляж

Ролі дублювали: Олександр Погребняк, Микола Карцев, Катерина Буцька, Михайло Кришталь, Анатолій Анатоліч, Доктор Комаровський, Вікторія Хмельницька, Соломія Вітвицька, Лілу та інші.
Фільм дубльовано на студії Tretyakoff Production на замовлення Aurora Distribution
Аудіо # 2:
мова: англійська
переклад: оригінал
кодек: 5.1
бітрейт: 1509 кбіт/с

Субтитри # 1-2:
мова: англійська (повні, SDH)
тип: програмні (м'які)
формат: *.srt

Збережені оригінальні розділи, як на Blu-ray.
Info
Код:
General
Unique ID                   : 248156926474493002878361961167772079747 (0xBAB1491A7D0FC5C6A0A426C79EC25683)
Complete name               : Zambezia (2012) [Ukr,Eng sub.Eng] 1080p 3D Half OverUnder [Hurtom & HDClub].
Format                      :
Format version              : Version 4 / Version 2
File size                   : 4.47 GiB
Duration                    : 1h 22mn
Overall bit rate            : 7 762 Kbps
Movie name                  : Замбезія / Zambezia (2012) [Ukr,Eng sub.Eng] 1080p 3D Half OverUnder [Hurtom & HDClub]
Encoded date                : UTC 2015-03-18 17:57:47
Writing application         : mkvmerge v7.7.0 ('Six Voices') 64bit built on Feb 28 2015 23:39:33
Writing library             : libebml v1.3.1 + libmatroska v1.4.2
DURATION                    : 01:21:44.608000000
NUMBER_OF_FRAMES            : 1359
NUMBER_OF_BYTES             : 46723
_STATISTICS_WRITING_APP     : mkvmerge v7.7.0 ('Six Voices') 64bit built on Feb 28 2015 23:39:33
_STATISTICS_WRITING_DATE_UT : 2015-03-18 17:57:47
_STATISTICS_TAGS            : BPS DURATION NUMBER_OF_FRAMES NUMBER_OF_BYTES

Video
ID                          : 1
Format                      : AVC
Format/Info                 : Advanced Video Codec
Format profile              : [email protected]
Format settings, CABAC      : Yes
Format settings, ReFrames   : 4 frames
Codec ID                    : V_MPEG4/ISO/AVC
Duration                    : 1h 22mn
Bit rate                    : 6 060 Kbps
Width                       : 1 920 pixels
Height                      : 1 080 pixels
Display aspect ratio        : 16:9
Frame rate mode             : Constant
Frame rate                  : 23.976 fps
Color space                 : YUV
Chroma subsampling          : 4:2:0
Bit depth                   : 8 bits
Scan type                   : Progressive
Bits/(Pixel*Frame)          : 0.122
Stream size                 : 3.40 GiB (76%)
Title                       : Замбезія / Zambezia / Замбезия (2012) 1080p 3D Half OverUnder [HDClub-DoroshDan]
Writing library             : core 144 r2525kMod 40bb568
Encoding settings           : cabac=1 / ref=4 / deblock=1:-3:-3 / analyse=0x3:0x113 / me=umh / subme=11 / psy=1 / fade_compensate=0.00 / psy_rd=1.00:0.00 / mixed_ref=1 / me_range=64 / chroma_me=1 / trellis=2 / 8x8dct=1 / cqm=0 / deadzone=21,11 / fast_pskip=0 / chroma_qp_offset=-2 / threads=6 / lookahead_threads=1 / sliced_threads=0 / nr=0 / decimate=0 / interlaced=0 / bluray_compat=0 / constrained_intra=0 / fgo=0 / bframes=16 / b_pyramid=2 / b_adapt=2 / b_bias=0 / direct=3 / weightb=1 / open_gop=0 / weightp=2 / keyint=250 / keyint_min=23 / scenecut=40 / intra_refresh=0 / rc_lookahead=80 / rc=2pass / mbtree=1 / bitrate=6060 / ratetol=1.0 / qcomp=0.60 / qpmin=10 / qpmax=51 / qpstep=4 / cplxblur=20.0 / qblur=0.5 / vbv_maxrate=62500 / vbv_bufsize=78125 / nal_hrd=none / filler=0 / frame-packing=4 / ip_ratio=1.40 / aq=1:1.00
Language                    : English
Default                     : Yes
Forced                      : No

Audio #1
ID                          : 2
Format                      : AC-3
Format/Info                 : Audio Coding 3
Mode extension              : CM (complete main)
Format settings, Endianness : Big
Codec ID                    : A_AC3
Duration                    : 1h 22mn
Bit rate mode               : Constant
Bit rate                    : 192 Kbps
Channel(s)                  : 2 channels
Channel positions           : Front: L R
Sampling rate               : 48.0 KHz
Bit depth                   : 16 bits
Compression mode            : Lossy
Stream size                 : 113 MiB (2%)
Title                       : Dub [Novyj-Tretyakoff Production] 2.0 192 kbps [Hurtom-karvai0]
Language                    : Ukrainian
Default                     : Yes
Forced                      : No

Audio #2
ID                          : 3
Format                      :
Format/Info                 : Digital Theater Systems
Mode                        : 16
Format settings, Endianness : Big
Codec ID                    : A_DTS
Duration                    : 1h 22mn
Bit rate mode               : Constant
Bit rate                    : 1 509 Kbps
Channel(s)                  : 6 channels
Channel positions           : Front: L C R, Side: L R, LFE
Sampling rate               : 48.0 KHz
Bit depth                   : 16 bits
Compression mode            : Lossy
Stream size                 : 890 MiB (19%)
Title                       : Original 5.1 1509 kbps
Language                    : English
Default                     : No
Forced                      : No

Text #1
ID                          : 4
Format                      : UTF-8
Codec ID                    : S_TEXT/UTF8
Codec ID/Info               : UTF-8 Plain Text
Title                       : [SRT/UTF8] Full
Language                    : English
Default                     : No
Forced                      : No

Text #2
ID                          : 5
Format                      : UTF-8
Codec ID                    : S_TEXT/UTF8
Codec ID/Info               : UTF-8 Plain Text
Title                       : [SRT/UTF8] Full SDH
Language                    : English
Default                     : No
Forced                      : No

Menu
00:00:00.000                : :CHAPTER №01
00:04:46.494                : :CHAPTER №02
00:08:27.256                : :CHAPTER №03
00:12:58.486                : :CHAPTER №04
00:18:24.561                : :CHAPTER №05
00:25:37.536                : :CHAPTER №06
00:30:46.761                : :CHAPTER №07
00:38:11.247                : :CHAPTER №08
00:43:55.382                : :CHAPTER №09
00:46:52.392                : :CHAPTER №10
00:50:51.757                : :CHAPTER №11
00:55:05.385                : :CHAPTER №12
01:00:01.431                : :CHAPTER №13
01:06:04.835                : :CHAPTER №14
01:12:11.410                : :CHAPTER №15
01:16:37.217                : :CHAPTER №16
Скріншоти

Відео виконане у форматі 3D! Для перегляду потрібні спеціальні окуляри та стереоплеєр або телевізор з підтримкою технології 3D!

Інструкції щодо перегляду відео у форматі 3D




Джерела та подяки: &
ріп відео, оригінальні звук та субтитри - DoroshDan (HDСlub); українська доріжка - andic, OlegCena, xslim, Technomate - запис звуку з ТБ, karvai0 - зведення (всі - Гуртом).

Особиста оцінка: 8 - мені сподобалося


ЗАЛИШАЙТЕСЬ ЯКОМОГА ДОВШЕ НА РОЗДАЧІ!

СКАЧАВ САМ - ДАЙ СКАЧАТИ ІНШИМ


 Трекер:    Зареєстрований   

Завантажити / скачати мультфільм українською



відео для новачків



 Зареєстрований:   2015-03-18 21:45
 Розмір:   4.47 GB 
 Оцінка мультфільму:   2.3/10 (Голосів: 12)
   
Інші релізи
   Замбезія / Zambezia (2012) 1080p Ukr/Eng | Sub Eng/Fre/Spa igor911  4 / 0   6.7 GB   2014-05-01 18:24 
   Замбезія / Zambezia (2012) Ukr/Eng Gelios  18 / 1   1.46 GB   2014-05-01 09:59 
   Замбезія / Zambezia (2012) 720p Ukr/Eng | Sub Eng xfsthe  6 / 0   2.7 GB   2013-01-16 01:14 
Ваш часовий пояс: GMT + 2 Години

Нова тема   Відповісти