Пінгвіни Мадагаскару / Penguins of Madagascar (2014) 1080p 3D [Half SideBySide] Ukr/Eng | Sub Ukr/Multi

Нові коментарі

Нова тема   Відповісти
Автор Повідомлення
Anonymous 







2015-03-12 17:50  
Пінгвіни Мадагаскару / Penguins of Madagascar (2014) 1080p 3D [Half SideBySide] Ukr/Eng | Sub Ukr/Multi



Українізований постер



Жанр: мультфільм, комедія, пригодницький, сімейний
Країна: США



Кінокомпанія: DreamWorks Animation, Pacific Data Images (PDI)
Режисер: Ерік Дарнелл / Eric Darnell, Саймон Дж. Сміт / Simon J. Smith
В оригіналі ролі озвучили: Том МакҐрат / Tom McGrath, Кріс Міллер / Chris Miller, Крістофер Найтс / Christopher Knights, Конрад Вернон / Conrad Vernon, Джон Малковіч / John Malkovich, Бенедикт Камбербетч / Benedict Cumberbatch, Кен Джонг / Ken Jeong та інші

Сюжет:
У мультфільмі «Пінгвіни Мадаґаскару» глядачі розкриють таємниці найбільш кумедно втаємничених птахів у світовій шпигунській грі. Шкіпер, Ковальські, Ріко та Рядовий мають об’єднати зусилля з потужною шпигунською установою під керівництвом Спеціального Аґента (ми б назвали його ім’я, але потім… ну, Ви розумієте), аби завадити підступному злодію Доктору Октавіусу Браяну захопити владу над всеньким світом.


Рейтинг MPAA: PG - рекомендується присутність батьків
Вікова категорія: 6+

Тривалість: 01:31:48
Якість: 1080p 3D [Half SideBySide]
Відео:
кодек:
розмір кадру: 1920 х 1080
бітрейт: 8742 кбіт/с [crf=17.6]

Аудіо # 1:
мова: українська
переклад: професійний дубльований
кодек: 5.1
бітрейт: 448 кбіт/с

Аудіо # 2:
мова: англійська
переклад: оригінал
кодек: 5.1
бітрейт: 1509 кбіт/с

Субтитри # 1-2:
мова: українська (форсовані, повні)
тип: програмні (м'які)
формат: *.srt

Субтитри # 3:
мова: англійська
тип: програмні (м'які)
формат: *.srt

Субтитри # 4-11:
мова: естонська, латвійська, литовська, нідерландська, норвезька, португальська, іспанська, в'єтнамська
тип: пререндерні
формат: VobSub

Збережено оригінальні розділи, як на Blu-ray.
Info
Код:
General
Unique ID                   : 225040225891438362820985815924440820350 (0xA94D2BC4ECFFB411BF9A57AC5EC7EA7E)
Complete name               : Penguins of Madagascar (2014) [Ukr,Eng sub.Ukr,Multi] 1080p 3D Half-SBS [Hurtom & HDClub].
Format                      :
Format version              : Version 4 / Version 2
File size                   : 7.00 GiB
Duration                    : 1h 31mn
Overall bit rate            : 10.9 Mbps
Movie name                  : Пінгвіни Мадагаскару / Penguins of Madagascar (2014) [Ukr,Eng sub.Ukr,Multi] 1080p 3D Half-SBS [Hurtom & HDClub]
Encoded date                : UTC 2015-03-12 07:17:23
Writing application         : mkvmerge v7.7.0 ('Six Voices') 64bit built on Feb 28 2015 23:39:33
Writing library             : libebml v1.3.1 + libmatroska v1.4.2
Attachements                : cover.jpg
DURATION                    : 01:21:56.238000000
NUMBER_OF_FRAMES            : 1123
NUMBER_OF_BYTES             : 10725207
_STATISTICS_WRITING_APP     : mkvmerge v7.7.0 ('Six Voices') 64bit built on Feb 28 2015 23:39:33
_STATISTICS_WRITING_DATE_UT : 2015-03-12 07:17:23
_STATISTICS_TAGS            : BPS DURATION NUMBER_OF_FRAMES NUMBER_OF_BYTES

Video
ID                          : 1
Format                      : AVC
Format/Info                 : Advanced Video Codec
Format profile              : [email protected]
Format settings, CABAC      : Yes
Format settings, ReFrames   : 4 frames
Codec ID                    : V_MPEG4/ISO/AVC
Duration                    : 1h 31mn
Bit rate                    : 8 742 Kbps
Width                       : 1 920 pixels
Height                      : 1 080 pixels
Display aspect ratio        : 16:9
Frame rate mode             : Constant
Frame rate                  : 23.976 fps
Color space                 : YUV
Chroma subsampling          : 4:2:0
Bit depth                   : 8 bits
Scan type                   : Progressive
Bits/(Pixel*Frame)          : 0.176
Stream size                 : 5.61 GiB (80%)
Title                       : Пінгвіни Мадагаскару / Penguins of Madagascar / Пингвины Мадагаскара (2014) 1080p 3D Half SideBySide [VietHD]
Writing library             : core 144 r0+2574 9abcd72 t_mod_Custom [[email protected] X86_64]
Encoding settings           : cabac=1 / ref=4 / deblock=1:-3:-3 / analyse=0x3:0x133 / me=umh / subme=10 / psy=1 / fade_compensate=0.00 / psy_rd=0.85:0.00 / mixed_ref=1 / me_range=24 / chroma_me=1 / trellis=2 / 8x8dct=1 / cqm=0 / deadzone=21,11 / fast_pskip=1 / chroma_qp_offset=-2 / threads=12 / lookahead_threads=3 / sliced_threads=0 / nr=0 / decimate=1 / interlaced=0 / bluray_compat=0 / constrained_intra=0 / fgo=0 / bframes=10 / b_pyramid=2 / b_adapt=2 / b_bias=0 / direct=3 / weightb=1 / open_gop=0 / weightp=2 / keyint=250 / keyint_min=23 / scenecut=40 / intra_refresh=0 / rc=crf / mbtree=0 / crf=17.6000 / qcomp=0.65 / qpmin=0:0:0 / qpmax=69:69:69 / qpstep=4 / ip_ratio=1.30 / pb_ratio=1.20 / aq=4:0.95 / aq-sensitivity=10.00 / aq-factor=1.00:1.00:1.00 / aq2=0 / aq3=0
Language                    : English
Default                     : Yes
Forced                      : No
Matrix coefficients         : BT.709
Color range                 : Limited
DURATION                    : 01:31:48.503000000
NUMBER_OF_FRAMES            : 132072
NUMBER_OF_BYTES             : 6102334144
_STATISTICS_WRITING_APP     : mkvmerge v7.7.0 ('Six Voices') 64bit built on Feb 28 2015 23:39:33
_STATISTICS_WRITING_DATE_UT : 2015-03-12 07:17:23
_STATISTICS_TAGS            : BPS DURATION NUMBER_OF_FRAMES NUMBER_OF_BYTES

Audio #1
ID                          : 2
Format                      : AC-3
Format/Info                 : Audio Coding 3
Mode extension              : CM (complete main)
Format settings, Endianness : Big
Codec ID                    : A_AC3
Duration                    : 1h 31mn
Bit rate mode               : Constant
Bit rate                    : 448 Kbps
Channel(s)                  : 6 channels
Channel positions           : Front: L C R, Side: L R, LFE
Sampling rate               : 48.0 KHz
Bit depth                   : 16 bits
Compression mode            : Lossy
Stream size                 : 294 MiB (4%)
Title                       : Dub [Blu-ray] 5.1 448 kbps
Language                    : Ukrainian
Default                     : Yes
Forced                      : No

Audio #2
ID                          : 3
Format                      :
Format/Info                 : Digital Theater Systems
Format profile              : ES
Mode                        : 16
Format settings, Endianness : Big
Codec ID                    : A_DTS
Duration                    : 1h 31mn
Bit rate mode               : Constant
Bit rate                    : 1 509 Kbps
Channel(s)                  : 6 channels
Channel positions           : Front: L C R, Side: L R, LFE
Sampling rate               : 48.0 KHz
Bit depth                   : 24 bits
Compression mode            : Lossy
Stream size                 : 991 MiB (14%)
Title                       : Original 5.1 1509 kbps
Language                    : English
Default                     : No
Forced                      : No

Text #1
ID                          : 4
Format                      : UTF-8
Codec ID                    : S_TEXT/UTF8
Codec ID/Info               : UTF-8 Plain Text
Title                       : Ukr Forced
Language                    : Ukrainian
Default                     : Yes
Forced                      : Yes

Text #2
ID                          : 5
Format                      : UTF-8
Codec ID                    : S_TEXT/UTF8
Codec ID/Info               : UTF-8 Plain Text
Title                       : Ukr full
Language                    : Ukrainian
Default                     : No
Forced                      : No

Text #3
ID                          : 6
Format                      : UTF-8
Codec ID                    : S_TEXT/UTF8
Codec ID/Info               : UTF-8 Plain Text
Title                       : Eng full
Language                    : English
Default                     : No
Forced                      : No

Text #4
ID                          : 7
Format                      : VobSub
Muxing mode                 : zlib
Codec ID                    : S_VOBSUB
Codec ID/Info               : The same subtitle format used on DVDs
Language                    : Estonian
Default                     : No
Forced                      : No

Text #5
ID                          : 8
Format                      : VobSub
Muxing mode                 : zlib
Codec ID                    : S_VOBSUB
Codec ID/Info               : The same subtitle format used on DVDs
Language                    : Latvian
Default                     : No
Forced                      : No

Text #6
ID                          : 9
Format                      : VobSub
Muxing mode                 : zlib
Codec ID                    : S_VOBSUB
Codec ID/Info               : The same subtitle format used on DVDs
Language                    : Lithuanian
Default                     : No
Forced                      : No

Text #7
ID                          : 10
Format                      : VobSub
Muxing mode                 : zlib
Codec ID                    : S_VOBSUB
Codec ID/Info               : The same subtitle format used on DVDs
Language                    : Dutch
Default                     : No
Forced                      : No

Text #8
ID                          : 11
Format                      : VobSub
Muxing mode                 : zlib
Codec ID                    : S_VOBSUB
Codec ID/Info               : The same subtitle format used on DVDs
Language                    : Norwegian
Default                     : No
Forced                      : No

Text #9
ID                          : 12
Format                      : VobSub
Muxing mode                 : zlib
Codec ID                    : S_VOBSUB
Codec ID/Info               : The same subtitle format used on DVDs
Language                    : Portuguese
Default                     : No
Forced                      : No

Text #10
ID                          : 13
Format                      : VobSub
Muxing mode                 : zlib
Codec ID                    : S_VOBSUB
Codec ID/Info               : The same subtitle format used on DVDs
Language                    : Spanish
Default                     : No
Forced                      : No

Text #11
ID                          : 14
Format                      : VobSub
Muxing mode                 : zlib
Codec ID                    : S_VOBSUB
Codec ID/Info               : The same subtitle format used on DVDs
Language                    : Vietnamese
Default                     : No
Forced                      : No

Menu
00:00:00.000                : en:1
00:03:38.000                : en:2
00:07:27.000                : en:3
00:09:23.000                : en:4
00:12:09.000                : en:5
00:16:08.000                : en:6
00:19:21.000                : en:7
00:23:02.000                : en:8
00:26:57.000                : en:9
00:28:59.000                : en:10
00:30:34.000                : en:11
00:33:59.000                : en:12
00:38:03.000                : en:13
00:41:28.000                : en:14
00:44:22.000                : en:15
00:46:37.000                : en:16
00:49:10.000                : en:17
00:54:28.000                : en:18
00:55:57.000                : en:19
01:00:00.000                : en:20
01:03:03.000                : en:21
01:06:37.000                : en:22
01:09:48.000                : en:23
01:12:06.000                : en:24
01:14:15.000                : en:25
01:15:54.000                : en:26
01:18:23.000                : en:27
01:20:44.000                : en:28


Відео виконане у форматі 3D! Для перегляду потрібні спеціальні окуляри та стереоплеєр або телевізор з підтримкою технології 3D!

Інструкції щодо перегляду відео у форматі 3D




Джерела та подяки: &

ЗАЛИШАЙТЕСЬ ЯКОМОГА ДОВШЕ НА РОЗДАЧІ!

СКАЧАВ САМ - ДАЙ СКАЧАТИ ІНШИМ


 Трекер:    Зареєстрований   

Завантажити / скачати мультфільм українською



відео для новачків



 Зареєстрований:   2015-03-12 17:50
 Розмір:   7 GB 
 Оцінка мультфільму:   5.3/10 (Голосів: 19)
   
Ваш часовий пояс: GMT + 2 Години

Нова тема   Відповісти