Монстри на канікулах / Hotel Transylvania (2012) 720p-mini (60fps) Ukr/Eng | Sub Eng

Нові коментарі

Нова тема   Відповісти
Автор Повідомлення
Drool 
VIP


З нами з: 17.04.10
Востаннє: 23.08.17
Повідомлень: 1376

2015-03-10 01:30  
Монстри на канікулах / Hotel Transylvania (2012) 720p-mini (60fps) Ukr/Eng | Sub Eng

Жанр: анімація, комедія, сімейний
Країна: США



Кінокомпанія: Columbia Pictures, Sony Pictures Animation
Режисер: Геннадій Тартаковський
Актори: Адам Сендлер, Селена Ґомез, Стів Бушемі, Кевін Джеймс, Девід Спейд, Енді Семберґ, Френ Дрешер та інші

Сюжет:
Дочка Дракули зі славетного вампірського роду і Саймон Ван Гельсінґ, робота якого - полювати на вампірів, зустрілися у затишному готелі в Трансильванії. Закохавшись одне в одного, ці двоє стали справжніми Ромео і Джульєттою у світі жаху. Розв’язка буде зовсім неочікуваною, бо все у цих монстрів не так, як у людей.


Тривалість: 01:31:31
Якість: 720p-mini
Відео:
кодек:
розмір кадру: 1280x694
бітрейт: 3829 кб/с
CRF: 18
частота кадрів: 59.940 кадрів/с

Аудіо # 1:
мова: українська
переклад: професійний дубльований
кодек: 5.1
бітрейт: 448 кб/с

Аудіо # 2:
мова: англійська
переклад: оригінал
кодек: 5.1
бітрейт: 448 кб/с

Субтитри 1-3:
мова: англійські (Full, SDH, Forced)
тип: програмні (м'які)
формат: *.srt
Info
General
Unique ID : 26651371080463379429183754204402632321 (0x140CDE0B7463BEC6C6B56BD137DB4681)
Complete name : /mnt/router/Torrents/Hotel.Transylvania.Ukr.Eng..720p.60FPS.
Format :
File size : 3.08 GiB
Duration : 1h 31mn
Overall bit rate : 4 821 Kbps
Movie name : Монстри на канікулах / Hotel Transylvania (2012) 60 FPS by EXCLUSIF
Encoded date : UTC 2013-03-25 14:35:35
Writing application : mkvmerge v4.8.0 ('I Got The...') сборка от Aug 22 2011 13:16:28
Writing library : libebml v1.2.0 + libmatroska v1.1.0

Video
ID : 1
Format : AVC
Format/Info : Advanced Video Codec
Format profile : [email protected]
Format settings, CABAC : Yes
Format settings, ReFrames : 8 frames
Codec ID : V_MPEG4/ISO/AVC
Duration : 1h 31mn
Bit rate : 3 829 Kbps
Width : 1 280 pixels
Height : 694 pixels
Display aspect ratio : 16:9
Frame rate : 59.940 fps
Color space : YUV
Chroma subsampling : 4:2:0
Bit depth : 8 bits
Scan type : Progressive
Bits/(Pixel*Frame) : 0.072
Stream size : 2.45 GiB (79%)
Title : Монстри на канікулах / Hotel Transylvania (2012) 60 FPS by EXCLUSIF
Writing library : core 129 r2230 1cffe9f
Encoding settings : cabac=1 / ref=8 / deblock=1:0:0 / analyse=0x3:0x133 / me=umh / subme=9 / psy=1 / psy_rd=1.00:0.00 / mixed_ref=1 / me_range=24 / chroma_me=1 / trellis=2 / 8x8dct=1 / cqm=0 / deadzone=21,11 / fast_pskip=1 / chroma_qp_offset=-2 / threads=6 / lookahead_threads=1 / sliced_threads=0 / nr=0 / decimate=1 / interlaced=0 / bluray_compat=0 / constrained_intra=0 / bframes=5 / b_pyramid=2 / b_adapt=2 / b_bias=0 / direct=3 / weightb=1 / open_gop=0 / weightp=2 / keyint=599 / keyint_min=59 / scenecut=40 / intra_refresh=0 / rc_lookahead=60 / rc=crf / mbtree=1 / crf=18.0 / qcomp=0.60 / qpmin=0 / qpmax=69 / qpstep=4 / ip_ratio=1.40 / aq=1:1.00

Audio #1
ID : 2
Format : AC-3
Format/Info : Audio Coding 3
Mode extension : CM (complete main)
Codec ID : A_AC3
Duration : 1h 31mn
Bit rate mode : Constant
Bit rate : 448 Kbps
Channel(s) : 6 channels
Channel positions : Front: L C R, Side: L R, LFE
Sampling rate : 48.0 KHz
Bit depth : 16 bits
Compression mode : Lossy
Stream size : 293 MiB (9%)
Title : Ukr 448 kbps
Language : Ukrainian

Audio #2
ID : 3
Format : AC-3
Format/Info : Audio Coding 3
Mode extension : CM (complete main)
Codec ID : A_AC3
Duration : 1h 31mn
Bit rate mode : Constant
Bit rate : 448 Kbps
Channel(s) : 6 channels
Channel positions : Front: L C R, Side: L R, LFE
Sampling rate : 48.0 KHz
Bit depth : 16 bits
Compression mode : Lossy
Stream size : 293 MiB (9%)
Title : Orig., Eng 448 kbps
Language : English

Text #1
ID : 4
Format : UTF-8
Codec ID : S_TEXT/UTF8
Codec ID/Info : UTF-8 Plain Text
Title : Forced
Language : English

Text #2
ID : 5
Format : UTF-8
Codec ID : S_TEXT/UTF8
Codec ID/Info : UTF-8 Plain Text
Title : Full
Language : English

Text #3
ID : 6
Format : UTF-8
Codec ID : S_TEXT/UTF8
Codec ID/Info : UTF-8 Plain Text
Title : Full-SDH

Menu
00:00:00.000 : en:00:00:00.000
00:04:49.372 : en:00:04:49.372
00:10:23.790 : en:00:10:23.790
00:14:19.275 : en:00:14:19.275
00:19:25.498 : en:00:19:25.498
00:25:11.218 : en:00:25:11.218
00:29:49.413 : en:00:29:49.413
00:35:50.815 : en:00:35:50.815
00:41:11.636 : en:00:41:11.636
00:46:29.537 : en:00:46:29.537
00:53:50.227 : en:00:53:50.227
00:57:44.795 : en:00:57:44.795
01:04:15.268 : en:01:04:15.268
01:08:48.499 : en:01:08:48.499
01:15:20.599 : en:01:15:20.599
01:18:50.643 : en:01:18:50.643
Скріншоти



Джерело:
Особиста оцінка: 9 - давно не бачив настільки якісне кіно


 Трекер:    Зареєстрований   

Завантажити / скачати мультфільм українською



відео для новачків



 Зареєстрований:   2015-03-10 01:30
 Розмір:   3.08 GB 
 Оцінка мультфільму:   9.8/10 (Голосів: 30)
   
Ваш часовий пояс: GMT + 2 Години

Нова тема   Відповісти