Дорога на Ельдорадо / The Road to El Dorado (2000) 720p 2xUkr/Eng | Sub Eng

Нові коментарі

Нова тема   Відповісти
Автор Повідомлення
tarasyk98 
Поважний учасник


З нами з: 19.12.13
Востаннє: 17.08.17
Повідомлень: 201

2015-03-07 12:46  
Дорога на Ельдорадо / The Road to El Dorado (2000) 720p 2xUkr/Eng | Sub Eng

Дорога на Ельдорадо / The Road to El Dorado (2000) 720p 2xUkr/Eng | Sub Eng


Вони прийшли по золото. Вони залишились для пригод.


Жанр: анімація, комедія, пригодницький, сімейний, мелодрама
Країна: США



Кінокомпанія: DreamWorks Pictures
Режисер: Ерік Бібо Бержерон / Eric Bibo Bergeron, Дон Пол / Don Paul, Вілл Фінн / Will Finn, Девід Сільверман / David Silverman, Джеффрі Катценберг / Jeffrey Katzenberg
Актори: Кевін Клайн / Kevin Kline, Кеннет Брана / Kenneth Branagh, Розі Перес / Rosie Perez, Арманд Ассанте / Armand Assante, Едвард Джеймс Олмос / Edward James Olmos, Джим Каммінгс / Jim Cummings, Френк Велкер / Frank Welker, Тобін Белл / Tobin Bell, Дункан Майорібенкс / Dunkan Marjoribanks, Елайджа Чіанг / Elijah Chiang, Сайрус Шакі-Кхан / Syrus Shaki-Khan, Елтон Джон / Elton John

Сюжет:
Приготуйтесь до найнеймовірніших пригод у своєму житті!
Тульо та Мігель, герої цієї повнометражної мультиплікаційної стрічки, воліють не заробляти гроші важкою працею. Ці два веселі шахраї обожнюють, коли золото саме тече до них в руки. Сталося так, що цим пройдисвітам дуже пощастило: до їх рук потрапила таємна карта, на якій було позначено шлях до легендарного Золотого Міста, міфічного Ельдорадо. "Майже випадково" разом зі знаменитим конкістадором Ернаном Кортесом приятелі вирушають у ризиковану подорож за скарбами до берегів далекої Америки...


Тривалість: 01:29:26
Якість: 720p
Відео:
кодек:
розмір кадру: 1280х718
бітрейт: 3925 кб/с

Аудіо # 1:
мова: українська | завантажити
переклад: багатоголосий закадровий
кодек: 2.0
бітрейт: 192 кб/с

Аудіо # 2:
мова: українська | завантажити
переклад: багатоголосий закадровий
кодек: 2.0
бітрейт: 192 кб/с

Аудіо # 3:
мова: англійська | завантажити
переклад: оригінал
кодек: 5.1
бітрейт: 384 кб/с

Субтитри:
мова: англійська | завантажити
тип: програмні (м'які)
формат: *.srt
Info
General
Unique ID : 233119398304190526454527944934271205392 (0xAF6129B922158F86AECE0C5FA24BC010)
Complete name : D:\Films\Hurtom Релізи\The Road to El Dorado (2000) 720p [Hurtom].
Format :
Format version : Version 4 / Version 2
File size : 2.99 GiB
Duration : 1h 29mn
Overall bit rate : 4 788 Kbps
Movie name : Дорога на Эльдорадо (2000) [ 720p]
Encoded date : UTC 2015-03-07 09:22:15
Writing application : mkvmerge v7.1.0 ('Good Love') 64bit built on Jul 27 2014 13:06:55
Writing library : libebml v1.3.0 + libmatroska v1.4.1
_STATISTICS_WRITING_APP : mkvmerge v7.1.0 ('Good Love') 64bit built on Jul 27 2014 13:06:55
_STATISTICS_WRITING_DATE_UT : 2015-03-07 09:22:15
_STATISTICS_TAGS : BPS DURATION NUMBER_OF_FRAMES NUMBER_OF_BYTES
DURATION : 01:29:11.278000000
NUMBER_OF_FRAMES : 1357
NUMBER_OF_BYTES : 62717

Video
ID : 1
Format : AVC
Format/Info : Advanced Video Codec
Format profile : [email protected]
Format settings, CABAC : No
Format settings, ReFrames : 2 frames
Codec ID : V_MPEG4/ISO/AVC
Duration : 1h 29mn
Bit rate : 3 925 Kbps
Width : 1 280 pixels
Height : 718 pixels
Display aspect ratio : 16:9
Frame rate mode : Constant
Frame rate : 23.976 fps
Color space : YUV
Chroma subsampling : 4:2:0
Bit depth : 8 bits
Scan type : Progressive
Bits/(Pixel*Frame) : 0.178
Stream size : 2.45 GiB (82%)
Language : English
Default : Yes
Forced : No
Color primaries : BT.709
Transfer characteristics : BT.709
Matrix coefficients : BT.709
Color range : Limited

Audio #1
ID : 2
Format : AC-3
Format/Info : Audio Coding 3
Mode extension : CM (complete main)
Format settings, Endianness : Big
Codec ID : A_AC3
Duration : 1h 29mn
Bit rate mode : Constant
Bit rate : 192 Kbps
Channel(s) : 2 channels
Channel positions : Front: L R
Sampling rate : 48.0 KHz
Bit depth : 16 bits
Compression mode : Lossy
Stream size : 123 MiB (4%)
Title : , 2ch, 192 Kbps (MVO) |IHTEP|
Language : Ukrainian
Default : No
Forced : No

Audio #2
ID : 3
Format : AC-3
Format/Info : Audio Coding 3
Mode extension : CM (complete main)
Format settings, Endianness : Big
Codec ID : A_AC3
Duration : 1h 29mn
Bit rate mode : Constant
Bit rate : 192 Kbps
Channel(s) : 1 channel
Channel positions : Front: C
Sampling rate : 48.0 KHz
Bit depth : 16 bits
Compression mode : Lossy
Stream size : 123 MiB (4%)
Title : , 1ch, 192 Kbps (DVO) |Новий канал|
Language : Ukrainian
Default : No
Forced : No

Audio #3
ID : 4
Format : AC-3
Format/Info : Audio Coding 3
Mode extension : CM (complete main)
Format settings, Endianness : Big
Codec ID : A_AC3
Duration : 1h 29mn
Bit rate mode : Constant
Bit rate : 384 Kbps
Channel(s) : 6 channels
Channel positions : Front: L C R, Side: L R, LFE
Sampling rate : 48.0 KHz
Bit depth : 16 bits
Compression mode : Lossy
Stream size : 246 MiB (8%)
Title : Оригинал
Language : English
Default : No
Forced : No

Text
ID : 5
Format : UTF-8
Codec ID : S_TEXT/UTF8
Codec ID/Info : UTF-8 Plain Text
Title : Оригинал
Language : English
Default : No
Forced : No

Menu
00:00:00.000 : en:El Dorado (main titles)
00:04:03.000 : en:Loaded Dice
00:07:23.000 : en:Stowaways
00:10:38.000 : en:Overboard
00:14:02.000 : en:Beached
00:17:19.000 : en:The Trail We Blaze
00:20:28.000 : en:Great Big Rock
00:23:58.000 : en:Entering El Dorado
00:25:05.000 : en:Stopping the Volcano
00:30:15.000 : en:Cheldorado
00:34:46.000 : en:It's Tough to Be a God
00:37:23.000 : en:A Tribute
00:42:27.000 : en:Three Days
00:46:31.000 : en:Age of the Jaguar
00:48:18.000 : en:Without Question
00:50:35.000 : en:Tzekel-kan's Advice
00:52:52.000 : en:Play Ball
00:57:48.000 : en:No Sacrifices
00:59:22.000 : en:Gods Don't Bleed
01:02:40.000 : en:Tulio and Chel - Deal
01:05:18.000 : en:Jaguar Attacks
01:10:02.000 : en:Tzekel-kan Emerges
01:11:34.000 : en:Friends Never Say Goodbye
01:14:43.000 : en:Cortes Approaches
01:16:59.000 : en:Got a Wave to Catch
01:19:46.000 : en:There's No El Dorado Here
01:21:12.000 : en:Follow That Trail
01:22:44.000 : en:Someday Out of the Blue (end credits)
Скріншоти




Джерело:
Особиста оцінка: 10 - без зайвих вагань рекомендую всім!

Подяка п. xfiles (Rutracker.org) за доріжку з Інтера, п. dvorsky за доріжку з Нового каналу, п. Tarzan99 (Rutracker.org) за синхронізацію доріжки з Нового каналу та сайту Kinozal.tv за ріп.


Срібний реліз (на рейтинг впливає 50% завантаженого)
 Трекер:    Зареєстрований   

Завантажити / скачати мультфільм українською



відео для новачків



 Зареєстрований:   2015-03-07 12:46
 Розмір:   2.99 GB 
 Оцінка мультфільму:   8.9/10 (Голосів: 12)
   
Інші релізи
khaled 
Свій


З нами з: 30.06.09
Востаннє: 17.08.17
Повідомлень: 144

2015-03-08 14:35  
Від якого каналу звук тут: https://toloka.to/t2914 ?
tarasyk98 
Поважний учасник


З нами з: 19.12.13
Востаннє: 17.08.17
Повідомлень: 201

2015-03-08 21:51  
khaled написано:
Від якого каналу звук тут: https://toloka.to/t2914 ?

Від Нового.

Ваш часовий пояс: GMT + 2 Години

Нова тема   Відповісти