Красуня / Краля / Pretty Woman (1990) 1080p 3xUkr/Eng | Sub Ukr/Eng

Нові коментарі

Нова тема   Відповісти
Автор Повідомлення
xfsthe 
Оцифрування книг Гуртом
Оцифрування книг Гуртом


З нами з: 13.02.11
Востаннє: 23.05.19
Повідомлень: 279

2015-03-04 23:11  
Красуня / Краля / Pretty Woman (1990) 1080p 3xUkr/Eng | Sub Ukr/Eng

Красуня / Краля / Pretty Woman (1990) 1080p 3xUkr/Eng | Sub Ukr/Eng


Жанр: комедія, мелодрама
Країна: США



Кінокомпанія: Touchstone Pictures, Silver Screen Partners IV
Режисер: Геррі Маршалл
Актори: Річард Ґір, Джулія Робертс, Ралф Белламі, Джейсон Алекзандер, Лора Сан Джакомо, Гектор Елізондо

Сюжет:
Фінансовий магнат Едвард Льюїс, проїжджаючи нічним містом, зупиняється близько гарної жінки. Її кличуть Вів'єн і вона бере тільки готівкою. Ранком він розуміє, що не прагне розлучатися з нею й пропонує дівчині залишитися в його номері в готелі ще на деякий час, за додатковий гонорар.

Вів'єн опиняється в морі блиску й брехні. Вона зносить недбале ставлення до себе заради чоловіка, що сподобався, який перестав бути для неї просто клієнтом.


Тривалість: 01:59:37
Якість: 1080p
Відео:
кодек:
розмір кадру: 1920 х 1040
бітрейт: 15.2 Мб/с

Аудіо # 1:
мова: українська
переклад: двоголосий закадровий
кодек: 5.1
бітрейт: 384 кб/с

Аудіо # 2:
мова: українська (назву фільму подано як "Краля")
переклад: двоголосий закадровий
кодек: 5.1
бітрейт: 384 кб/с

Аудіо # 3: "Так треба продакшн",
мова: українська
переклад: багатоголосий закадровий
кодек: 5.1
бітрейт: 384 кб/с

Аудіо # 4:
мова: англійська
переклад: оригінал
кодек: 5.1
бітрейт: 1509 кб/с

Субтитри:
мова: українська
тип: програмні (м'які)
формат: *.srt

Субтитри:
мова: англійська
тип: програмні (м'які)
формат: *.srt
Info
General
Unique ID : 25767415419283507529175945144338645474 (0x13629FAA721F431F4B542DEE73C681E2)
Complete name : /home/xfsthe/Відео/Pretty Woman (1990) [3xukr,eng] sub[ukr,eng] 1080p.
Format :
Format version : Version 4 / Version 2
File size : 15.2 GiB
Duration : 1h 59mn
Overall bit rate : 18.2 Mbps
Movie name : Красуня / Pretty Woman (1990) 1080p
Encoded date : UTC 2015-02-27 20:33:05
Writing application : v6.3.0 ('You can't stop me!') built on Jun 29 2013 11:48:33
Writing library : libebml v1.3.0 + v1.4.0

Video
ID : 1
Format : AVC
Format/Info : Advanced Video Codec
Format profile : [email protected]
Format settings, CABAC : Yes
Format settings, ReFrames : 4 frames
Codec ID : V_MPEG4/ISO/AVC
Duration : 1h 59mn
Bit rate : 15.2 Mbps
Width : 1 920 pixels
Height : 1 040 pixels
Display aspect ratio : 1.85:1
Frame rate mode : Constant
Frame rate : 23.976 fps
Color space : YUV
Chroma subsampling : 4:2:0
Bit depth : 8 bits
Scan type : Progressive
Bits/(Pixel*Frame) : 0.317
Stream size : 12.7 GiB (83%)
Title : 1920x1040, 15.2 Mbps, 23.976 fps
Writing library : core 142 r2431 ac76440
Encoding settings : cabac=1 / ref=4 / deblock=1:-1:-1 / analyse=0x3:0x113 / me=umh / subme=10 / psy=1 / psy_rd=1.00:0.15 / mixed_ref=1 / me_range=32 / chroma_me=1 / trellis=2 / 8x8dct=1 / cqm=0 / deadzone=21,11 / fast_pskip=1 / chroma_qp_offset=-3 / threads=6 / lookahead_threads=1 / sliced_threads=0 / nr=0 / decimate=1 / interlaced=0 / bluray_compat=0 / constrained_intra=0 / bframes=8 / b_pyramid=2 / b_adapt=2 / b_bias=0 / direct=3 / weightb=1 / open_gop=0 / weightp=2 / keyint=230 / keyint_min=23 / scenecut=40 / intra_refresh=0 / rc_lookahead=40 / rc=crf / mbtree=0 / crf=18.3 / qcomp=0.60 / qpmin=0 / qpmax=69 / qpstep=4 / vbv_maxrate=40000 / vbv_bufsize=50000 / crf_max=0.0 / nal_hrd=none / filler=0 / ip_ratio=1.40 / pb_ratio=1.30 / aq=1:1.00
Language : English
Default : Yes
Forced : No

Audio #1
ID : 2
Format : AC-3
Format/Info : Audio Coding 3
Mode extension : CM (complete main)
Format settings, Endianness : Big
Codec ID : A_AC3
Duration : 1h 59mn
Bit rate mode : Constant
Bit rate : 384 Kbps
Channel count : 6 channels
Channel positions : Front: L C R, Side: L R, LFE
Sampling rate : 48.0 KHz
Bit depth : 16 bits
Compression mode : Lossy
Stream size : 329 MiB (2%)
Title : 5.1 @ 384 kbps | 1+1
Language : Ukrainian
Default : Yes
Forced : No

Audio #2
ID : 3
Format : AC-3
Format/Info : Audio Coding 3
Mode extension : CM (complete main)
Format settings, Endianness : Big
Codec ID : A_AC3
Duration : 1h 59mn
Bit rate mode : Constant
Bit rate : 384 Kbps
Channel count : 6 channels
Channel positions : Front: L C R, Side: L R, LFE
Sampling rate : 48.0 KHz
Bit depth : 16 bits
Compression mode : Lossy
Stream size : 329 MiB (2%)
Title : 5.1 @ 384 kbps | Новий канал
Language : Ukrainian
Default : No
Forced : No

Audio #3
ID : 4
Format : AC-3
Format/Info : Audio Coding 3
Mode extension : CM (complete main)
Format settings, Endianness : Big
Codec ID : A_AC3
Duration : 1h 59mn
Bit rate mode : Constant
Bit rate : 384 Kbps
Channel count : 6 channels
Channel positions : Front: L C R, Side: L R, LFE
Sampling rate : 48.0 KHz
Bit depth : 16 bits
Compression mode : Lossy
Stream size : 329 MiB (2%)
Title : 5.1 @ 384 kbps | Інтер
Language : Ukrainian
Default : No
Forced : No

Audio #4
ID : 5
Format :
Format/Info : Digital Theater Systems
Mode : 16
Format settings, Endianness : Big
Codec ID : A_DTS
Duration : 1h 59mn
Bit rate mode : Constant
Bit rate : 1 509 Kbps
Channel count : 6 channels
Channel positions : Front: L C R, Side: L R, LFE
Sampling rate : 48.0 KHz
Bit depth : 16 bits
Compression mode : Lossy
Stream size : 1.26 GiB (8%)
Title : 5.1 @ 1510 kbps
Language : English
Default : No
Forced : No

Text #1
ID : 6
Format : UTF-8
Codec ID : S_TEXT/UTF8
Codec ID/Info : UTF-8 Plain Text
Title : by Lan
Language : Ukrainian
Default : No
Forced : No

Text #2
ID : 7
Format : UTF-8
Codec ID : S_TEXT/UTF8
Codec ID/Info : UTF-8 Plain Text
Language : English
Default : No
Forced : No
Скріншоти





Подяка панам:
SsashI - за звукові доріжки від телеканалів 1+1 та Інтер
xslim - за звукову доріжку від Нового каналу
karvai0 - за українізований постер
Lan - за українські субтитри


Джерело: &
Особиста оцінка: 10 - без зайвих вагань рекомендую всім!


Срібний реліз (на рейтинг впливає 50% завантаженого)
 Трекер:    Зареєстрований   

Завантажити / скачати фільм українською



відео для новачків



 Зареєстрований:   2015-03-04 23:11
 Розмір:   15.21 GB 
 Оцінка фільму:   9.3/10 (Голосів: 12)
   
mikeklm 
Новенький


З нами з: 06.01.13
Востаннє: 07.05.19
Повідомлень: 6

2016-07-15 20:29  
привіт усім! Може є можливість в когось стати на роздачу цього релізу? Буду вдячний. Дякую
bot 
робот


З нами з: 30.09.07
Востаннє: 26.05.05
Повідомлень: 21388

2016-07-15 21:40  
Тему перенесено з Фільми в HD до форуму Архів відео

Причина перенесення: Останній раз роздавалося nashpoker (2016-01-25)
igor911

ExtremeCat 
Поважний учасник


З нами з: 12.10.10
Востаннє: 27.05.19
Повідомлень: 156

2017-02-27 15:43  
НАрод може раптом ще в когось є даний реліз ?
ExtremeCat 
Поважний учасник


З нами з: 12.10.10
Востаннє: 27.05.19
Повідомлень: 156

2017-08-12 13:14  
УРА є ще люди в яких він був) Скачав і став на роздачу!)
lebovskiy 
Частий відвідувач


З нами з: 07.10.08
Востаннє: 14.05.19
Повідомлень: 42

2018-01-13 14:48  
Роздайте, будь ласка.
bot 
робот


З нами з: 30.09.07
Востаннє: 26.05.05
Повідомлень: 21388

2018-01-13 15:01  
Тему перенесено з Архів відео до форуму Фільми в HD


igor911

Ваш часовий пояс: GMT + 2 Години

Нова тема   Відповісти