Реальна білка / The Nut Job (2014) 1080p

Нові коментарі

Нова тема   Відповісти
Автор Повідомлення
AngryBirdsUA 
Свій


З нами з: 24.02.10
Востаннє: 19.08.17
Повідомлень: 3097

2015-02-24 10:45  
Реальна білка / The Nut Job (2014) 1080p

Реальна білка / The Nut Job (2014) 1080p


Жанр: анімація, пригодницький, комедія
Країна: Канада, Південна Корея, США



Кінокомпанія: Gulfstream Pictures, Red Rover International, ToonBox Entertainment
Режисер: Пітер Лепеніотіс
Актори: Віл Арнет, Брендан Фрейзер, Ліам Нісон, Кетрін Вейґл, Стівен Ленґ, Мая Рудольф, Джеф Данем, Ґебріел Іґлесіас, Сара Ґадоні, Джеймс Ранкін

Сюжет:
Намагаючись вижити в місті, нерозлучні друзі - білка і пацючок натрапляють на магазин, до країв набитий їхніми улюбленими ласощами - горіхами. Відчуваючи, що «мрії збуваються», приятелі планують найбільше пограбування в історії гризунів. Але тут зовсім недоречно намалювалися бідні родичі з парку - прямо 13 друзів арахісу! Однак їм усім невтямки, що магазин горіхів - лише прикриття для банди грабіжників, які мають намір вирити тунель під банк і підмінити мішки з грошима на мішки з тими самими горіхами.


Тривалість: 01:25:23
Якість: 1080p [RUS Transfer]
Відео:
кодек:
розмір кадру: 1920 х 1036
бітрейт: 8062 кб/с

Аудіо:
мова: українська
переклад: багатоголосий закадровий
кодек: 5.1
бітрейт: 1152 кб/с
Info
General
Unique ID : 193230746747253143763156049964654040686 (0x915EE35CBAA7D0BBB5D1BCD48DD6966E)
Complete name : D:\The Nut Job (2014) 1080p [Hurtom].
Format :
Format version : Version 4 / Version 2
File size : 5.50 GiB
Duration : 1h 25mn
Overall bit rate : 9 216 Kbps
Encoded date : UTC 2015-02-24 07:18:06
Writing application : mkvmerge v7.6.0 ('Garden of Dreams') 64bit built on Feb 8 2015 13:04:34
Writing library : libebml v1.3.1 + libmatroska v1.4.2
DURATION : 01:25:23.787000000
NUMBER_OF_FRAMES : 480355
NUMBER_OF_BYTES : 737825280
_STATISTICS_WRITING_APP : mkvmerge v7.6.0 ('Garden of Dreams') 64bit built on Feb 8 2015 13:04:34
_STATISTICS_WRITING_DATE_UT : 2015-02-24 07:18:06
_STATISTICS_TAGS : BPS DURATION NUMBER_OF_FRAMES NUMBER_OF_BYTES

Video
ID : 1
Format : AVC
Format/Info : Advanced Video Codec
Format profile : [email protected]
Format settings, CABAC : Yes
Format settings, ReFrames : 4 frames
Codec ID : V_MPEG4/ISO/AVC
Duration : 1h 25mn
Bit rate : 8 062 Kbps
Width : 1 920 pixels
Height : 1 036 pixels
Display aspect ratio : 1.85:1
Frame rate mode : Constant
Frame rate : 23.976 fps
Color space : YUV
Chroma subsampling : 4:2:0
Bit depth : 8 bits
Scan type : Progressive
Bits/(Pixel*Frame) : 0.169
Stream size : 4.70 GiB (86%)
Writing library : core 142 r2431 ac76440
Encoding settings : cabac=1 / ref=4 / deblock=1:0:0 / analyse=0x3:0x133 / me=umh / subme=11 / psy=1 / psy_rd=1.00:0.00 / mixed_ref=1 / me_range=32 / chroma_me=1 / trellis=2 / 8x8dct=1 / cqm=0 / deadzone=21,11 / fast_pskip=0 / chroma_qp_offset=-2 / threads=12 / lookahead_threads=2 / sliced_threads=0 / nr=0 / decimate=0 / interlaced=0 / bluray_compat=0 / constrained_intra=0 / bframes=8 / b_pyramid=2 / b_adapt=2 / b_bias=0 / direct=3 / weightb=1 / open_gop=0 / weightp=2 / keyint=240 / keyint_min=23 / scenecut=40 / intra_refresh=0 / rc=2pass / mbtree=0 / bitrate=8062 / ratetol=1.0 / qcomp=0.60 / qpmin=0 / qpmax=69 / qpstep=4 / cplxblur=20.0 / qblur=0.5 / ip_ratio=1.40 / pb_ratio=1.30 / aq=1:1.00
Language : English
Default : Yes
Forced : No

Audio
ID : 2
Format :
Format/Info : Digital Theater Systems
Mode : 16
Format settings, Endianness : Big
Codec ID : A_DTS
Duration : 1h 25mn
Bit rate mode : Constant
Bit rate : 1 152 Kbps
Channel(s) : 6 channels
Channel positions : Front: L C R, Side: L R, LFE
Sampling rate : 48.0 KHz
Bit depth : 24 bits
Compression mode : Lossy
Stream size : 704 MiB (13%)
Language : Ukrainian
Default : Yes
Forced : No

Menu
00:00:00.000 : :Chapter 01
00:07:46.591 : :Chapter 02
00:14:15.104 : :Chapter 03
00:21:09.434 : :Chapter 04
00:29:39.694 : :Chapter 05
00:35:58.364 : :Chapter 06
00:43:50.419 : :Chapter 07
00:50:47.544 : :Chapter 08
00:57:54.929 : :Chapter 09
01:04:54.265 : :Chapter 10
01:08:28.562 : :Chapter 11
01:12:01.150 : :Chapter 12
01:25:23.701 : :Chapter 13


Джерело:


 Трекер:    Зареєстрований   

Завантажити / скачати мультфільм українською



відео для новачків



 Зареєстрований:   2015-02-24 10:45
 Розмір:   5.5 GB 
 Оцінка мультфільму:   8.6/10 (Голосів: 21)
   
Інші релізи
   Реальна білка / The Nut Job (2014) Gelios  54 / 0   1.45 GB   2015-02-22 21:39 
igor911 
Відео Гуртом
Відео Гуртом


З нами з: 18.01.08
Востаннє: 19.08.17
Повідомлень: 7283

2015-02-24 11:17  
Gelios написано:
Українська звукова доріжка підходить тільки під рос трансфер, бо саме ця версія була у нас в кіно. Логотипи і таке інше англійською.

З цієї ж причини відсутня оригінальна доріжка (її не було на рос. блу-реї).

zed 
Відео Гуртом - дизайнер
Відео Гуртом - дизайнер


З нами з: 10.12.13
Востаннє: 19.08.17
Повідомлень: 287

2015-02-24 14:08  
Перенесіть у "Мультфільми в HD".
bot 
робот


З нами з: 30.09.07
Востаннє: 26.05.05
Повідомлень: 17366

2015-02-24 14:10  
Тему перенесено з Фільми в HD до форуму Мультфільми в HD


Vasua95

Oleksa9 
Поважний учасник


З нами з: 17.05.12
Востаннє: 18.08.17
Повідомлень: 241

2015-02-25 08:06  
У чому справжність вивірки?
bohdk 
Відео Гуртом - субтитрування
Відео Гуртом - субтитрування


З нами з: 23.10.09
Востаннє: 17.08.17
Повідомлень: 589

2015-03-01 22:58  
Oleksa9
Цитата:
У чому справжність вивірки?

Тут не "справжність", тут "реальність". Знов тупий кацапський переклад втулили. Скільки вчиш, а своїх мізків і далі не вживають.

casper101 
Поважний учасник


З нами з: 03.12.09
Востаннє: 18.08.17
Повідомлень: 207

2017-01-03 01:20  
720
Ваш часовий пояс: GMT + 2 Години

Нова тема   Відповісти