Покагонтес / Покахонтас / Pocahontas (1995) 720p 2xUkr/Eng | Sub Ukr/Eng

Нові коментарі

Нова тема   Відповісти
Автор Повідомлення
MAKAPOHHIK 
Відео Гуртом - фільмокрай
Відео Гуртом - фільмокрай


З нами з: 04.01.09
Востаннє: 19.08.17
Повідомлень: 920

2015-02-13 15:55  
Покагонтес / Покахонтас / Pocahontas (1995) 720p 2xUkr/Eng | Sub Ukr/Eng

Покагонтес / Покахонтас / Pocahontas (1995) 720p 2xUkr/Eng | Sub Ukr/Eng


Жанр: драма, пригодницький
Країна: США



Кінокомпанія: Walt Disney Pictures
Режисер: Майк Гебріел / Mike Gabriel, Ерік Голдберг / Eric Goldberg
Сюжет:
Екіпаж, як пояснює капітан, пливе назустріч пригодам, успіху, багатству. Але сам капітан має намір знайти там щось цілком визначене — золото. Корабель причалює до одного з берегів Нового Світу, щоб запастися водою. Джон Сміт, головний герой, відправляється на розвідку, тоді як Покагонтес - принцеса індіанців - стежить за незвичайними людьми, які вторглися на їх землі. Тут вона бачить незнайомця, Джона, і стежить за ним. Той у свою чергу в пів-ока спостерігає за нею і ось, нарешті, вони зустрічаються... Кохання з першого погляду... Заборонене кохання, яке має пройти через безліч перешкод...

Опис взято з: http://uk.wikipedia.org/wiki/окахонтас_(мультфільм,_1995)

Увага! У релізі присутні дві майже іденчичні українські доріжки:


1-ша - Повне озвучення і на піснях також!
2-га - На піснях залишений оригінал і додані субтитри з перекладом! Вони присутні в контейнері і можна увімкнути.


Тривалість: 01:21:08
Якість: 720p
Відео:
кодек:
розмір кадру: 1280 х 720
бітрейт: 2921 кб/с

Аудіо # 1:
мова: українська
переклад: багатоголосий закадровий
кодек: 5.1
бітрейт: 640 кб/с

Аудіо # 2:
мова: українська
переклад: багатоголосий закадровий
кодек: 5.1
бітрейт: 640 кб/с

Аудіо # 3:
мова: англійська
переклад: оригінал
кодек: 5.1
бітрейт: 640 кб/с

Субтитри:
мова: українська (Тільки на пісні!)
тип: програмні (м'які)
формат: UTF-8

Субтитри:
мова: англійська (Повні)
тип: програмні (м'які)
формат: UTF-8
Info
General
Unique ID : 237524372295207620074918961991883430575 (0xB2B187B5741F3C348454473725B41AAF)
Complete name : Z:\Ukr\Pocahontas.(1995).BluRay.720p.Ukr-Eng.BaibaKo.tv.
Format :
Format version : Version 4 / Version 2
File size : 2.80 GiB
Duration : 1h 21mn
Overall bit rate : 4 939 Kbps
Encoded date : UTC 2010-02-22 21:41:31
Writing application : mkvmerge v5.9.0 ('On The Loose') built on Dec 9 2012 15:37:01
Writing library : libebml v1.3.0 + libmatroska v1.4.0
Attachements : xlog.txt / cover.jpg

Video
ID : 1
Format : AVC
Format/Info : Advanced Video Codec
Format profile : [email protected]
Format settings, CABAC : Yes
Format settings, ReFrames : 8 frames
Codec ID : V_MPEG4/ISO/AVC
Duration : 1h 21mn
Bit rate : 2 921 Kbps
Width : 1 280 pixels
Height : 720 pixels
Display aspect ratio : 16:9
Frame rate mode : Constant
Frame rate : 23.976 fps
Color space : YUV
Chroma subsampling : 4:2:0
Bit depth : 8 bits
Scan type : Progressive
Bits/(Pixel*Frame) : 0.132
Stream size : 1.66 GiB (59%)
Writing library : core 122 r2184kMod 5c85e0a
Encoding settings : cabac=1 / ref=8 / deblock=1:-1:-1 / analyse=0x3:0x113 / me=umh / subme=11 / psy=1 / fade_compensate=0.00 / psy_rd=0.60:0.00 / mixed_ref=1 / me_range=48 / chroma_me=1 / trellis=2 / 8x8dct=1 / cqm=0 / deadzone=21,11 / fast_pskip=1 / chroma_qp_offset=-2 / threads=12 / sliced_threads=0 / nr=0 / decimate=1 / interlaced=0 / bluray_compat=0 / constrained_intra=0 / bframes=9 / b_pyramid=2 / b_adapt=2 / b_bias=0 / direct=1 / weightb=1 / open_gop=0 / weightp=2 / keyint=250 / keyint_min=23 / scenecut=40 / intra_refresh=0 / rc_lookahead=40 / rc=crf / mbtree=0 / crf=16.5000 / qcomp=0.70 / qpmin=0 / qpmax=69 / qpstep=4 / vbv_maxrate=50000 / vbv_bufsize=62500 / crf_max=0.0 / nal_hrd=none / ip_ratio=1.40 / pb_ratio=1.30 / aq=3:0.70
Language : English
Default : Yes
Forced : No
Matrix coefficients : BT.709
Color range : Limited

Audio #1
ID : 2
Format : AC-3
Format/Info : Audio Coding 3
Mode extension : CM (complete main)
Format settings, Endianness : Big
Codec ID : A_AC3
Duration : 1h 21mn
Bit rate mode : Constant
Bit rate : 640 Kbps
Channel(s) : 6 channels
Channel positions : Front: L C R, Side: L R, LFE
Sampling rate : 48.0 KHz
Bit depth : 16 bits
Compression mode : Lossy
Stream size : 371 MiB (13%)
Language : Ukrainian
Default : Yes
Forced : No

Audio #2
ID : 3
Format : AC-3
Format/Info : Audio Coding 3
Mode extension : CM (complete main)
Format settings, Endianness : Big
Codec ID : A_AC3
Duration : 1h 21mn
Bit rate mode : Constant
Bit rate : 640 Kbps
Channel(s) : 6 channels
Channel positions : Front: L C R, Side: L R, LFE
Sampling rate : 48.0 KHz
Bit depth : 16 bits
Compression mode : Lossy
Stream size : 371 MiB (13%)
Title : без озвучення на піснях!
Language : Ukrainian
Default : No
Forced : No

Audio #3
ID : 4
Format : AC-3
Format/Info : Audio Coding 3
Mode extension : CM (complete main)
Format settings, Endianness : Big
Codec ID : A_AC3
Duration : 1h 21mn
Bit rate mode : Constant
Bit rate : 640 Kbps
Channel(s) : 6 channels
Channel positions : Front: L C R, Side: L R, LFE
Sampling rate : 48.0 KHz
Bit depth : 16 bits
Compression mode : Lossy
Stream size : 371 MiB (13%)
Language : English
Default : No
Forced : No

Text #1
ID : 5
Format : UTF-8
Codec ID : S_TEXT/UTF8
Codec ID/Info : UTF-8 Plain Text
Title : форсовані на пісні
Language : Ukrainian
Default : No
Forced : No

Text #2
ID : 6
Format : UTF-8
Codec ID : S_TEXT/UTF8
Codec ID/Info : UTF-8 Plain Text
Language : English
Default : No
Forced : No

Menu
00:00:00.000 : en:Off To The New World / "The Virginia Company"
00:03:59.906 : en:Governor Ratcliffe
00:05:29.495 : en:Opening Credits / "Steady As A Beating Drum"
00:07:41.169 : en:Pocahontas
00:10:50.316 : en:Pocahontas Tells Her Father About Her Dream
00:12:38.466 : en:"Just Around The Riverbend"
00:15:08.908 : en:Grandmother Willow
00:16:48.757 : en:Advice From Grandmother Willow / "Listen With Your Heart"
00:18:13.801 : en:The New World
00:22:39.608 : en:Powhatan's Council
00:25:01.416 : en:Digging For Gold / "Mine, Mind, Mine"
00:28:51.438 : en:John Smith Meets Pocahontas
00:33:32.343 : en:A Clash Between The Settlers And The Indians
00:35:59.782 : en:Getting To Know One Other
00:39:19.857 : en:"Colors Of The Wind"
00:43:13.424 : en:Finishing The Fortess
00:45:37.151 : en:In The Cornfield
00:48:03.046 : en:John Smith Meets Grandmother Willow
00:50:39.911 : en:The Warriors Arrive
00:54:07.953 : en:Pocahontas Runs Off to Meet John Smith
00:56:04.361 : en:The Final Meeting
01:01:50.373 : en:Pocahontas Visits The Prisoner
01:06:25.314 : en:"Savages"
01:08:17.384 : en:Pocahontas Understands Her Dream
01:09:24.660 : en:Sunrise / "Savages" (Part 2)
01:10:30.017 : en:Pocahontas Saves John Smith
01:13:35.202 : en:The Departure
01:15:37.658 : en:End Credits / "If I Never Knew You" & "Colors Of The Wind"
Скріншоти
Озвучення
Переклад: Професійний (багатоголосий, закадровий)
Переклав: Юрій Кульчак
Озвучили: Олекса Мельник, Anna_Smile, Акмал Гурезов, Ольга Мотрич, і Вадим Пелех.
Змонтував: Тарас Гавришкевич
Обкладинка: Тарас Гавришкевич
Джерело:
Особиста оцінка: 0 - не дивився


Авторський реліз (завантажувати можна без реєстрації)
 Трекер:    Зареєстрований   

Завантажити / скачати мультфільм українською



відео для новачків



 Зареєстрований:   2015-02-13 15:55
 Розмір:   2.8 GB 
 Оцінка мультфільму:   9.9/10 (Голосів: 27)
   
Інші релізи
Ваш часовий пояс: GMT + 2 Години

Нова тема   Відповісти