Бенкет / Feast (2014) 1080p-mini Eng | sub Ukr

Нові коментарі

Нова тема   Відповісти
Автор Повідомлення
Soturi 
Свій


З нами з: 23.01.15
Востаннє: 03.04.15
Повідомлень: 130

2015-02-12 22:57  
Бенкет / Feast (2014) 1080p-mini Eng | sub Ukr

Бенкет / Feast (2014) 1080p-mini Eng | sub Ukr

Премія "Оскар" за найкращу короткометражну анімацію

Жанр: Комедія
Країна: США



Кінокомпанія: Walt Disney Animation Studios
Режисер: Патрік Озборн
Актори: Бен Бледзо, Кейті Лоуз, Брендон Скот, Едам Шапіро, Томі Снайдер, Марк Алан Стюарт

Сюжет:
Дядечко забирає до себе додому маленького голодного цуцика. Там він може їсти досхочу.


Тривалість: 00:06:13
Якість:
Відео:
кодек:
розмір кадру: 1920 х 804
бітрейт: 1999 кб/с

Аудіо:
мова: англійська (кілька реплік)
переклад: оригінал
кодек: 2.0
бітрейт: 144 кб/с

Субтитри:
мова: українська
тип: програмні (м'які)
формат: *.srt
Info
General
Format : MPEG-4
Format profile : Base Media
Codec ID : isom
File size : 93.5 MiB
Duration : 6mn 13s
Overall bit rate mode : Variable
Overall bit rate : 2 099 Kbps
Encoded date : UTC 2015-02-10 03:12:05
Tagged date : UTC 2015-02-10 03:12:05

Video
ID : 1
Format : AVC
Format/Info : Advanced Video Codec
Format profile : [email protected]
Format settings, CABAC : Yes
Format settings, ReFrames : 5 frames
Codec ID : avc1
Codec ID/Info : Advanced Video Coding
Duration : 6mn 13s
Bit rate : 1 999 Kbps
Maximum bit rate : 11.0 Mbps
Width : 1 920 pixels
Height : 804 pixels
Display aspect ratio : 2.40:1
Frame rate mode : Constant
Frame rate : 23.976 fps
Color space : YUV
Chroma subsampling : 4:2:0
Bit depth : 8 bits
Scan type : Progressive
Bits/(Pixel*Frame) : 0.054
Stream size : 89.2 MiB (95%)
Writing library : core 142 r2431 ac76440
Encoding settings : cabac=1 / ref=5 / deblock=1:-1:-1 / analyse=0x3:0x113 / me=umh / subme=9 / psy=1 / psy_rd=1.00:0.15 / mixed_ref=1 / me_range=24 / chroma_me=1 / trellis=2 / 8x8dct=1 / cqm=0 / deadzone=21,11 / fast_pskip=0 / chroma_qp_offset=-3 / threads=24 / lookahead_threads=2 / sliced_threads=0 / nr=0 / decimate=1 / interlaced=0 / bluray_compat=0 / constrained_intra=0 / bframes=3 / b_pyramid=2 / b_adapt=2 / b_bias=0 / direct=3 / weightb=1 / open_gop=0 / weightp=2 / keyint=240 / keyint_min=23 / scenecut=40 / intra_refresh=0 / rc_lookahead=60 / rc=2pass / mbtree=1 / bitrate=1999 / ratetol=1.0 / qcomp=0.60 / qpmin=0 / qpmax=69 / qpstep=4 / cplxblur=20.0 / qblur=0.5 / vbv_maxrate=31250 / vbv_bufsize=31250 / nal_hrd=none / filler=0 / ip_ratio=1.40 / aq=1:1.00
Encoded date : UTC 2015-02-09 20:12:28
Tagged date : UTC 2015-02-10 03:12:08
Color primaries : BT.709
Matrix coefficients : BT.709
Color range : Limited

Audio
ID : 2
Format :
Format/Info : Advanced Audio Codec
Format profile : LC
Codec ID : 40
Duration : 6mn 13s
Bit rate mode : Variable
Bit rate : 93.1 Kbps
Maximum bit rate : 144 Kbps
Channel(s) : 2 channels
Channel positions : Front: L R
Sampling rate : 48.0 KHz
Compression mode : Lossy
Stream size : 4.14 MiB (4%)
Скріншоти


Джерело:
Особиста оцінка: 10 - Життєрадісний Happy


Золотий реліз (завантажене не впливає на рейтинг)
 Трекер:    Зареєстрований   

Завантажити / скачати фільм українською



відео для новачків



 Зареєстрований:   2015-02-12 23:03
 Розмір:   94 MB 
 Оцінка фільму:   9.8/10 (Голосів: 12)
   
Maters 
Відео Гуртом - підтримка та поширення
Відео Гуртом - підтримка та поширення


З нами з: 27.03.12
Востаннє: 23.01.20
Повідомлень: 2014

2015-02-14 00:07  
Бляха муха, ніколи не думав, що в 6 хв можна вкласти цілу історію, та ще й таку кльову! Рейтинг 8.5, я думав, за що ж? Завантажив, подивився і поставлю на IMBD 10. Супер!
Soturi 
Свій


З нами з: 23.01.15
Востаннє: 03.04.15
Повідомлень: 130

2015-02-14 01:11  
Maters написано:
ніколи не думав, що в 6 хв можна вкласти цілу історію

Тоді можу лише порекомендувати подивитись Престо і Про пташок. Там історії не такі круті, але це короткометражні анімаційні шедеври Happy.

Konfucius 
Управління
Управління


З нами з: 30.09.07
Востаннє: 22.01.20
Повідомлень: 5189

2015-02-14 20:32  
Бракує Info.
slavikgreen 
Частий відвідувач


З нами з: 06.04.10
Востаннє: 19.01.20
Повідомлень: 45

2015-06-01 15:26  
Maters
АБСОЛЮТНО! згідний

Ваш часовий пояс: GMT + 2 Години

Нова тема   Відповісти