Пірати! Банда невдах / The Pirates! Band of Misfits (2012) 360p

Нові коментарі

Нова тема   Відповісти
Останній раз роздавалося DmitryA (2020-09-30)
Автор Повідомлення
DmitryA 
Новенький


З нами з: 15.08.12
Востаннє: 28.09.20
Повідомлень: 23

2015-02-05 18:14  
Пірати! Банда невдах / The Pirates! Band of Misfits (2012) 360p

Пірати! Банда невдах / The Pirates! Band of Misfits (2012) 360p


Жанр: анімація, комедія, пригодницький, сімейний
Країна: Велика Британія, США



Кінокомпанія: Aardman Animations, Sony Pictures Animation
Режисер: Пітер Лорд, Джефф Н’ювітт
Актори: Х'ю Грант / Олег Михайлюта (Фагот), Брендан Глісон, Джеремі Півен, Брайан Блессід / Валерій Чигляєв, Ленні Генрі, Сальма Хайєк, Девід Теннант / Ігор Кондратюк

Сюжет:
Екранізація першої книги із серії романів письменника Гідеона Дефо, розповідаючих про банду невдалих піратів. У першій частині пірати прибувають до Лондона, де знайомляться з молодим Чарльзом Дарвіном і розмовляючим шимпанзе на ім'я Містер Бобо, а також зіткнуться з ворогами, які хочуть їх знищити.


Тривалість: 01:28:05
Якість:
Відео:
кодек: MPEG-4 SP
розмір кадру: 640 x 272
бітрейт: 1100 кб/с

Аудіо:
мова: українська
переклад: професійний дубльований
кодек: 2.0
бітрейт: 128 кб/с
Скріншоти




Звіт Info
General
Complete name : The.Pirates.In.an.Adventure.with.Scientists.2012..360p.[Hurtom].m4v
Format : MPEG-4
Codec ID : M4V
File size : 772 MiB
Duration : 1h 28mn
Overall bit rate mode : Variable
Overall bit rate : 1 225 Kbps
Encoded date : UTC 2014-12-18 23:25:35
Tagged date : UTC 2014-12-18 23:25:35

Video
ID : 1
Format : MPEG-4 Visual
Format profile : [email protected]
Format settings, BVOP : No
Format settings, QPel : No
Format settings, GMC : No warppoints
Format settings, Matrix : Default (H.263)
Codec ID : 20
Duration : 1h 28mn
Bit rate mode : Variable
Bit rate : 1 095 Kbps
Maximum bit rate : 8 817 Kbps
Width : 640 pixels
Height : 272 pixels
Display aspect ratio : 2.35:1
Frame rate mode : Constant
Frame rate : 23.976 fps
Color space : YUV
Chroma subsampling : 4:2:0
Bit depth : 8 bits
Scan type : Progressive
Compression mode : Lossy
Bits/(Pixel*Frame) : 0.262
Stream size : 690 MiB (89%)
Writing library : 1.2.1 (UTC 2008-12-04)
Encoded date : UTC 2014-12-18 23:25:35
Tagged date : UTC 2014-12-18 23:25:39

Audio
ID : 2
Format :
Format/Info : Advanced Audio Codec
Format profile : LC
Codec ID : 40
Duration : 1h 28mn
Bit rate mode : Variable
Bit rate : 128 Kbps
Maximum bit rate : 135 Kbps
Channel(s) : 2 channels
Channel positions : Front: L R
Sampling rate : 48.0 KHz
Compression mode : Lossy
Stream size : 80.6 MiB (10%)
Encoded date : UTC 2014-12-18 23:25:37
Tagged date : UTC 2014-12-18 23:25:39
Джерело:
Особиста оцінка: 10 - без зайвих вагань рекомендую всім!


 Трекер:    Зареєстрований   

Завантажити / скачати торрент



відео для новачків



 Зареєстрований:   2015-02-05 18:14
 Розмір:   772 MB 
 Оцінка:   9.4/10 (Голосів: 9)
   
bot 
робот


З нами з: 30.09.07
Востаннє: 26.05.05
Повідомлень: 26356

2015-02-05 18:14  
Тему перенесено з Фільми до форуму Відео для мобільних (iOS, Android, Windows Phone)


DmitryA

Ваш часовий пояс: GMT + 2 Години

Нова тема   Відповісти