Вартові галактики / Guardians of the Galaxy (2014) 360p

Нові коментарі

Нова тема   Відповісти
Автор Повідомлення
DmitryA 
Новенький


З нами з: 15.08.12
Востаннє: 21.11.17
Повідомлень: 23

2015-02-05 17:34  
Вартові галактики / Guardians of the Galaxy (2014) 360p

Вартові галактики / Guardians of the Galaxy (2014) 360p


Жанр: екшн, пригодницький, фантастика
Країна: США, Велика Британія



Кінокомпанія: Marvel Studios, Marvel Enterprises, Moving Picture Company (MPC)
Режисер: Джеймс Ґанн
Актори: Кріс Претт, Зої Салдана, Дейв Батіста, Він Дізель, Бредлі Купер, Лі Пейс, Майкл Рукер, Карен Ґіллан, Джімон Гонсу, Джон Сі Райлі

Сюжет:
Пітер Квілл стає жертвою мисливців за головами після крадіжки таємничої сфери, за якою полював Ронан - могутній лиходій, повний амбіцій і загрозливий для цілого всесвіту. Щоб здолати Ронана, Пітеру доводиться об'єднатися з квартетом покидьків: озброєним до зубів єнотом Ракетою, деревоподібним гуманоїдом Ґрутом, смертельно небезпечною і загадковою Гаморою і мстивим Драксом-Руйнівником. Але коли Пітер виявляє справжню силу сфери та дізнається наскільки вона небезпечна для космосу, він повинен зробити все можливе, щоб згуртувати всіх членів команди для останнього протистояння і повернути баланс у всій Галактиці.


Тривалість: 02:01:08
Якість:
Відео:
кодек: MPEG-4 SP
розмір кадру: 640 x 266
бітрейт: 1100 кб/с

Аудіо:
мова: українська
переклад: професійний дубльований
кодек: 2.0
бітрейт: 128 кб/с
Скріншоти




Звіт Info
General
Complete name : Guardians.of.the.Galaxy.2014..360p.[Hurtom].m4v
Format : MPEG-4
Codec ID : M4V
File size : 1.03 GiB
Duration : 2h 1mn
Overall bit rate mode : Variable
Overall bit rate : 1 223 Kbps
Encoded date : UTC 2014-12-16 15:20:20
Tagged date : UTC 2014-12-16 15:20:20

Video
ID : 1
Format : MPEG-4 Visual
Format profile : [email protected]
Format settings, BVOP : No
Format settings, QPel : No
Format settings, GMC : No warppoints
Format settings, Matrix : Default (H.263)
Codec ID : 20
Duration : 2h 0mn
Bit rate mode : Variable
Bit rate : 1 095 Kbps
Maximum bit rate : 9 708 Kbps
Width : 640 pixels
Height : 266 pixels
Display aspect ratio : 2.40:1
Frame rate mode : Constant
Frame rate : 23.976 fps
Color space : YUV
Chroma subsampling : 4:2:0
Bit depth : 8 bits
Scan type : Progressive
Compression mode : Lossy
Bits/(Pixel*Frame) : 0.268
Stream size : 947 MiB (89%)
Writing library : 1.2.1 (UTC 2008-12-04)
Encoded date : UTC 2014-12-16 15:20:20
Tagged date : UTC 2014-12-16 15:20:26

Audio
ID : 2
Format :
Format/Info : Advanced Audio Codec
Format profile : LC
Codec ID : 40
Duration : 2h 1mn
Bit rate mode : Variable
Bit rate : 128 Kbps
Maximum bit rate : 136 Kbps
Channel(s) : 2 channels
Channel positions : Front: L R
Sampling rate : 48.0 KHz
Compression mode : Lossy
Stream size : 111 MiB (10%)
Encoded date : UTC 2014-12-16 15:20:23
Tagged date : UTC 2014-12-16 15:20:26
Джерело:
Особиста оцінка: 10 - без зайвих вагань рекомендую всім!


 Трекер:    Зареєстрований   

Завантажити / скачати торрент



відео для новачків



 Зареєстрований:   2015-02-05 17:34
 Розмір:   1.03 GB 
 Оцінка:   9.6/10 (Голосів: 13)
   
bot 
робот


З нами з: 30.09.07
Востаннє: 26.05.05
Повідомлень: 17835

2015-02-05 17:34  
Тему перенесено з Фільми до форуму Відео для мобільних (iOS, Android, Windows Phone)


DmitryA

sadamh2015 
Новенький


З нами з: 09.04.15
Востаннє: 22.11.17
Повідомлень: 2

2017-02-26 20:47  
Станьте, будь ласка, на роздачу
Ваш часовий пояс: GMT + 2 Години

Нова тема   Відповісти