Шторму назустріч / Into the Storm (2014) 360p

Нові коментарі

Нова тема   Відповісти
Останній раз роздавалося DmitryA (2020-09-30)
Автор Повідомлення
DmitryA 
Новенький


З нами з: 15.08.12
Востаннє: 05.01.21
Повідомлень: 23

2015-02-05 17:03  
Шторму назустріч / Into the Storm (2014) 360p

Шторму назустріч / Into the Storm (2014) 360p


Жанр: пригодницький, трилер, бойовик
Країна: США



Кінокомпанія: Broken Road Productions, New Line Cinema, Village Roadshow Pictures
Режисер: Стівен Куейла
Актори: Річард Армітедж, Сара Уейн Колліс, Метт Уолш, Макс Дікон, Нейтан Кресс, Алісія Дебні Кері, Арлен Ескарпета, Джеремі Самптер, Лі Вітейкер, Кайл Девіс

Сюжет:
Всього лише за один день неймовірне «навала» смерчів практично знищило містечко Сільверстон. Всі його мешканці були віддані на розтерзання непередбачуваним і смертельно небезпечним торнадо, і при цьому метеорологи кажуть, що найгірше ще попереду. Більшість шукають притулку, в той час як деякі сміливці йдуть назустріч стихії, відчуваючи себе: наскільки далеко зможе зайти «мисливець за торнадо» заради одного єдиного - зате якого! - Знімка.


Тривалість: 01:29:17
Якість:
Відео:
кодек: MPEG-4 SP
розмір кадру: 640 x 360
бітрейт: 1100 кб/с

Аудіо:
мова: українська
переклад: професійний дубльований
кодек: 2.0
бітрейт: 128 кб/с
Скріншоти




Звіт Info
General
Complete name : Into.the.Storm.2014..360p.[Hurtom].m4v
Format : MPEG-4
Codec ID : M4V
File size : 787 MiB
Duration : 1h 29mn
Overall bit rate mode : Variable
Overall bit rate : 1 233 Kbps
Encoded date : UTC 2014-12-11 16:26:18
Tagged date : UTC 2014-12-11 16:26:18

Video
ID : 1
Format : MPEG-4 Visual
Format profile : [email protected]
Format settings, BVOP : No
Format settings, QPel : No
Format settings, GMC : No warppoints
Format settings, Matrix : Default (H.263)
Codec ID : 20
Duration : 1h 29mn
Bit rate mode : Variable
Bit rate : 1 102 Kbps
Maximum bit rate : 5 230 Kbps
Width : 640 pixels
Height : 360 pixels
Display aspect ratio : 16:9
Frame rate mode : Constant
Frame rate : 23.976 fps
Color space : YUV
Chroma subsampling : 4:2:0
Bit depth : 8 bits
Scan type : Progressive
Compression mode : Lossy
Bits/(Pixel*Frame) : 0.199
Stream size : 704 MiB (89%)
Writing library : 1.2.1 (UTC 2008-12-04)
Encoded date : UTC 2014-12-11 16:26:18
Tagged date : UTC 2014-12-11 16:26:23

Audio
ID : 2
Format :
Format/Info : Advanced Audio Codec
Format profile : LC
Codec ID : 40
Duration : 1h 29mn
Bit rate mode : Variable
Bit rate : 128 Kbps
Maximum bit rate : 135 Kbps
Channel(s) : 2 channels
Channel positions : Front: L R
Sampling rate : 48.0 KHz
Compression mode : Lossy
Stream size : 81.8 MiB (10%)
Encoded date : UTC 2014-12-11 16:26:21
Tagged date : UTC 2014-12-11 16:26:23
Джерело:
Особиста оцінка: 10 - без зайвих вагань рекомендую всім!


 Трекер:    Зареєстрований   

Завантажити / скачати торрент



відео для новачків



 Зареєстрований:   2015-02-05 17:03
 Розмір:   787 MB 
 Оцінка:   8.3/10 (Голосів: 6)
   
Інші релізи
bot 
робот


З нами з: 30.09.07
Востаннє: 26.05.05
Повідомлень: 26949

2015-02-05 17:03  
Тему перенесено з Фільми до форуму Відео для мобільних (iOS, Android, Windows Phone)


DmitryA

Ваш часовий пояс: GMT + 2 Години

Нова тема   Відповісти