Джон Картер: між двох світів / John Carter (2012) 360p

Нові коментарі

Нова тема   Відповісти
Автор Повідомлення
DmitryA 
Новенький


З нами з: 15.08.12
Востаннє: 17.10.19
Повідомлень: 23

2015-02-04 21:23  
Джон Картер: між двох світів / John Carter (2012) 360p

Джон Картер: між двох світів / John Carter (2012) 360p


Жанр: фантастика, фентезі, пригодницький, екшн
Країна: США



Кінокомпанія: Walt Disney Pictures / Buena Vista Sony Pictures Releasing (BVSPR)
Режисер: Ендрю Стентон
Актори: Тейлор Кітч, Лінн Коллінз, Саманта Мортон, Віллем Дефо, Томас Хейден Чьорч, Марк Стронг, Кіаран Хайндс, Домінік Уест, Джеймс Пьюрфой, Брайан Кренстон, Поллі Уокер, Деріл Сабара

Сюжет:
Джон Картер, ветеран Громадянської війни в США, опиняється на Марсі проти своєї волі. На чужій незнайомій планеті він потрапляє у полон до войовничих чотириметрових тубільців. Досвідченому військовому Картеру доведеться визволити принцесу Дею Торіс з Геліума і врятуватися самому.


Тривалість: 02:12:01
Якість:
Відео:
кодек: MPEG-4 SP
розмір кадру: 640 x 266
бітрейт: 1100 кб/с

Аудіо:
мова: українська
переклад: професійний дубльований
кодек: 2.0
бітрейт: 128 кб/с
Скріншоти




Звіт Info
General
Complete name : John.Carter.2012..360p.[Hurtom].m4v
Format : MPEG-4
Codec ID : M4V
File size : 1.13 GiB
Duration : 2h 12mn
Overall bit rate mode : Variable
Overall bit rate : 1 226 Kbps
Encoded date : UTC 2014-12-09 17:06:48
Tagged date : UTC 2014-12-09 17:06:48

Video
ID : 1
Format : MPEG-4 Visual
Format profile : [email protected]
Format settings, BVOP : No
Format settings, QPel : No
Format settings, GMC : No warppoints
Format settings, Matrix : Default (H.263)
Codec ID : 20
Duration : 2h 12mn
Bit rate mode : Variable
Bit rate : 1 095 Kbps
Maximum bit rate : 6 681 Kbps
Width : 640 pixels
Height : 266 pixels
Display aspect ratio : 2.40:1
Frame rate mode : Constant
Frame rate : 23.976 fps
Color space : YUV
Chroma subsampling : 4:2:0
Bit depth : 8 bits
Scan type : Progressive
Compression mode : Lossy
Bits/(Pixel*Frame) : 0.268
Stream size : 1.01 GiB (89%)
Writing library : 1.2.1 (UTC 2008-12-04)
Encoded date : UTC 2014-12-09 17:06:48
Tagged date : UTC 2014-12-09 17:06:56

Audio
ID : 2
Format :
Format/Info : Advanced Audio Codec
Format profile : LC
Codec ID : 40
Duration : 2h 12mn
Bit rate mode : Variable
Bit rate : 128 Kbps
Maximum bit rate : 136 Kbps
Channel(s) : 2 channels
Channel positions : Front: L R
Sampling rate : 48.0 KHz
Compression mode : Lossy
Stream size : 121 MiB (10%)
Encoded date : UTC 2014-12-09 17:06:53
Tagged date : UTC 2014-12-09 17:06:56
Джерело:
Особиста оцінка: 10 - без зайвих вагань рекомендую всім!


 Трекер:    Зареєстрований   

Завантажити / скачати торрент



відео для новачків



 Зареєстрований:   2015-02-04 21:23
 Розмір:   1.13 GB 
 Оцінка:   9.6/10 (Голосів: 14)
   
Інші релізи
   Джон Картер: Між двох світів / John Carter (2012) Remux 1080p Ukr/Eng | Sub Ukr/Eng staf777  4 / 0   29.41 GB   2017-02-26 21:47 
   Джон Картер: між двох світів / John Carter (2012) AVC Ukr/Eng Yarik M  3 / 0   3.02 GB   2014-07-06 10:47 
   Джон Картер: між двох світів / John Carter (2012) 1080p Ukr/Eng (3D) [Half OverUnder] famous37  2 / 0   15 GB   2013-12-24 20:54 
   Джон Картер: між двох світів / John Carter (2012) Dark Invader  6 / 0   1.37 GB   2012-05-26 12:01 
   Джон Картер: між двох світів / John Carter (2012) 720p-mini | Sub Ukr Drool  6 / 0   2.15 GB   2012-05-25 17:04 
   Джон Картер: Між двох світів / John Carter (2012) 720p Ukr/Eng | Sub Ukr/Eng Zeus62  10 / 0   4.38 GB   2012-05-25 11:37 
   Джон Картер: між двох світів / John Carter (2012) 1080p Ukr/Eng | Sub Ukr/Eng | Лiцензiя LiquidatorFX  5 / 0   15.63 GB   2012-05-25 02:27 
   Джон Картер: між двох світів / John Carter (2012) 720p Ukr/Eng | Sub Ukr/Eng | Лiцензiя LiquidatorFX  4 / 0   7.06 GB   2012-05-25 02:14 
   Джон Картер: між двох світів / John Carter (2012) | Лiцензiя LiquidatorFX  14 / 0   2.18 GB   2012-05-25 01:51 
   Джон Картер: між двох світів / John Carter (2012) DVD9 Eng/Ita/Rus/Ukr | Ліцензія vitalicio  1 / 0   7.13 GB   2012-05-25 00:43 
   Джон Картер: між двох світів / John Carter (2012) Ukr/Eng |Ліцензія sstonecold1  1 / 0   2.29 GB   2012-05-25 00:13 
bot 
робот


З нами з: 30.09.07
Востаннє: 26.05.05
Повідомлень: 22309

2015-02-04 21:25  
Тему перенесено з Фільми до форуму Відео для мобільних (iOS, Android, Windows Phone)


DmitryA

nejaka 
Свій


З нами з: 01.02.12
Востаннє: 07.07.19
Повідомлень: 75

2015-02-06 21:18  
Сподобався цей фільм.
Ваш часовий пояс: GMT + 2 Години

Нова тема   Відповісти