Бліч: Спогади в забутті / Gekijouban Bleach: Memories of Nobody / 劇場版 BLEACH ブリーチ MEMORIES OF NOBODY [2006] 720p

Нові коментарі

Нова тема   Відповісти
Автор Повідомлення
Arch Enemy 
VIP


З нами з: 30.08.12
Востаннє: 21.08.17
Повідомлень: 644

2015-02-03 01:25  
Бліч: Спогади в забутті / Gekijouban Bleach: Memories of Nobody



Країна: Японія
Прем'єра: 16.12.2006
Жанр: пригоди, шьонен, комедія, драма
Аніместудія: Studio Pierrot

Тривалість: 01год. 32хв. 52сек.

Режисер: Абе Норіюкі
Автор Оригіналу: Кубо Тайто
Сейю: Моріта Масаказу (Куросакі Ічіґо), Сайто Чіва (Сенна), Іто Кентаро (Абарай Ренджі), Фукуяма Джун (Аясеґава Юмічіка), Янада Кійоюкі (Цукабіші Тессай, Бау), Соумі Йоко (Бенін), Ебара Масаші (Ґанрю), Паку Ромі (Хіцуґая Тошіро), Орікаса Фуміко (Кучікі Рукія), Ніші Рінтаро (Іба Тецузаемон), Мацуока Юкі (Іное Оріхіме), Суґіяма Норіакі (Ішіда Урюу), Мацумото Дай (Джай), Сакурай Такахіро (Кіра Ізуру), Мадоно Міцуакі (Кон), Окіаю Рьотаро (Кучікі Б'якуя), Морікава Тошіюкі (Куросакі Ішін, Рян), Куґімія Ріе (Куросакі Карін), Сена Аюмі (Куросакі Юзу), Накао Рюусей (Куроцучі Маюрі), Мочізукі Хісайо (Кусаджіші Ячіру), Ооцука Акіо (Кіораку Шунсуй), Хіяма Нобуюкі (Мадараме Ікаку), Мацутані Кая (Мацумото Ранґіку), Кондо Такаші (Муе), Ясумото Хірокі (Садо Ясутора), Кавакамі Томоко (Сой Фон), Ішікава Хідео (Укітаке Джюушіро), Мікі Шінчіро (Урахара Кісуке), Цукада Масаакі (Ямамото-Ґенрюусай Шіґекуні), Тачікі Фуміхіко (Заракі Кенпачі) та інші.

Сюжет:
У затиснутому між Товариством душ та Світом живих просторовому вимірі у небачених раніше масштабах циркулюють потоки енергії, що загрожують порушити звичний баланс всесвіту. Чисті (душі, що випали з кола переродження), які утворили цей вимір, зі сліпим завзяттям полюють на втрачені спогади, зібрані у живому «вмістилищі» - Розарії пам’яті.
Клан «Дарк Уан», якого колись вигнали з Товариства Душ, був приречений на вічні блукання Межисвіттям. Але голова клану, Ґанрю, поклявся помститися і тепер повернувся взяти своє.
А що ж наш герой Куросакі Ічіґо? Він як і досі в парі з Рукією та Коном неквапливо патрулює Каракуру, поки в місті не з’являється дівчина-шініґамі Сенна, яка, звісно ж, і є той самий Розарій пам’яті. І не була б вона вродлива дівчина, якби не потрапила у полон. Проте наш головний герой добре знається на порятунках чарівних пані, тож не на того натрапили! Ух, начувайтеся, кляті крадії красунь!..

© MadGuy


Відео:
якість:
контейнер:
кодек:
частота кадрів: 24 кадрів/сек.
розмір кадру: 1272х688 пікс.
бітрейт: ~1900 кбіт/сек.
бітність: 10 біт.

Аудіо:
мова: українська, двоголосе закадрове озвучення.
кодек:
кількість каналів: 2.0
бітрейт: 192 кбіт/сек.
частота: 48000 Гц

Джерело озвучення: AniUA

текст читали: Henessi та Kraka
переклад: MadGuy
таймінг звуку: Kohinsan
робота зі звуком: Arch_Enemy

Джерело релізу: AniUA
Скріншоти
Скрінлист
MI
General
Unique ID : 250756805687232952299267505312995203640 (0xBCA6010B989DE32493A625E25967DA38)
Complete name : E:\Anime\[AniUA]_BLEACH_[UKR]\[AniUA]_[Movie_01]_Gekijouban_Bleach_-_Memories_of_Nobody_[2006]_[BDRip_x264_Hi10P_1272x688_AC3]_[Hennessi_and_Kraka].
Format :
Format version : Version 4 / Version 2
File size : 1.36 GiB
Duration : 1h 32mn
Overall bit rate : 2 103 Kbps
Encoded date : UTC 2015-02-01 11:41:09
Writing application : mkvmerge v7.5.0 ('Glass Culture') 64bit built on Jan 4 2015 16:48:44
Writing library : libebml v1.3.1 + libmatroska v1.4.2
DURATION : 01:32:52.032000000
NUMBER_OF_FRAMES : 174126
NUMBER_OF_BYTES : 133728768
_STATISTICS_WRITING_APP : mkvmerge v7.5.0 ('Glass Culture') 64bit built on Jan 4 2015 16:48:44
_STATISTICS_WRITING_DATE_UTC : 2015-02-01 11:41:09
_STATISTICS_TAGS : BPS DURATION NUMBER_OF_FRAMES NUMBER_OF_BYTES

Video
ID : 1
Format : AVC
Format/Info : Advanced Video Codec
Format profile : High 4:4:4 [email protected]
Format settings, CABAC : Yes
Format settings, ReFrames : 16 frames
Codec ID : V_MPEG4/ISO/AVC
Duration : 1h 32mn
Bit rate : 1 869 Kbps
Width : 1 272 pixels
Height : 688 pixels
Display aspect ratio : 1.85:1
Frame rate mode : Constant
Frame rate : 24.000 fps
Color space : YUV
Chroma subsampling : 4:4:4
Bit depth : 10 bits
Scan type : Progressive
Bits/(Pixel*Frame) : 0.089
Stream size : 1.21 GiB (89%)
Title : http://aniua.com/
Writing library : core 125 r0+2868M 54929fe
Encoding settings : cabac=1 / ref=16 / deblock=1:0:0 / analyse=0x3:0x133 / me=umh / subme=10 / psy=1 / psy_rd=1.00:0.00 / mixed_ref=1 / me_range=32 / chroma_me=1 / trellis=2 / 8x8dct=1 / cqm=0 / deadzone=21,11 / fast_pskip=0 / chroma_qp_offset=4 / threads=1 / lookahead_threads=1 / sliced_threads=0 / nr=0 / decimate=0 / interlaced=0 / bluray_compat=0 / constrained_intra=0 / bframes=8 / b_pyramid=2 / b_adapt=2 / b_bias=0 / direct=3 / weightb=1 / open_gop=0 / weightp=2 / keyint=250 / keyint_min=24 / scenecut=40 / intra_refresh=0 / rc_lookahead=60 / rc=crf / mbtree=1 / crf=15.0 / qcomp=0.60 / qpmin=0 / qpmax=81 / qpstep=4 / ip_ratio=1.40 / aq=2:1.00
Language : Japanese
Default : Yes
Forced : Yes
Color primaries : BT.709
Matrix coefficients : BT.709
DURATION : 01:32:51.959000000
NUMBER_OF_FRAMES : 133727
NUMBER_OF_BYTES : 1330060160
_STATISTICS_WRITING_APP : mkvmerge v7.5.0 ('Glass Culture') 64bit built on Jan 4 2015 16:48:44
_STATISTICS_WRITING_DATE_UTC : 2015-02-01 11:41:09
_STATISTICS_TAGS : BPS DURATION NUMBER_OF_FRAMES NUMBER_OF_BYTES

Audio
ID : 2
Format : AC-3
Format/Info : Audio Coding 3
Mode extension : CM (complete main)
Format settings, Endianness : Big
Codec ID : A_AC3
Duration : 1h 32mn
Bit rate mode : Constant
Bit rate : 192 Kbps
Channel(s) : 2 channels
Channel positions : Front: L R
Sampling rate : 48.0 KHz
Bit depth : 16 bits
Compression mode : Lossy
Stream size : 128 MiB (9%)
Title : Hennessi and Kraka
Language : Ukrainian
Default : Yes
Forced : Yes


Авторський реліз (завантажувати можна без реєстрації)
 Трекер:    Зареєстрований   

Завантажити / скачати аніме українською



відео для новачків



 Зареєстрований:   2015-02-03 01:25
 Розмір:   1.36 GB 
 Оцінка аніме:   10/10 (Голосів: 4)
   
Arch Enemy 
VIP


З нами з: 30.08.12
Востаннє: 21.08.17
Повідомлень: 644

2015-02-03 01:47  
Як завжди - версія для малозабезпечених і тих, кому байдуже до якості і аби "на разок")))
Насолоджуйтесь.

NeetScrool 
Відео Гуртом - фільмокрай
Відео Гуртом - фільмокрай


З нами з: 10.01.13
Востаннє: 21.08.17
Повідомлень: 2613

2015-02-03 02:55  
Arch Enemy
Малозабезпечені дивляться avi на залізяках початку 00-х.

Gwean 
Відео Гуртом - фільмокрай
Відео Гуртом - фільмокрай


З нами з: 28.07.12
Востаннє: 21.08.17
Повідомлень: 449

2015-02-03 13:02  
Arch Enemy
Сумніваюся, що у всіх прямо таки FullHD монітори з IPS матрицею та повним охопленням кольорів) У мене й досі старенький LG 1280x1024.

MadGuy 
Свій


З нами з: 05.08.11
Востаннє: 21.08.17
Повідомлень: 87

2015-02-03 14:14  
Arch Enemy
лол, хто б казав, у самого "пан монітор-квадрат".

Arch Enemy 
VIP


З нами з: 30.08.12
Востаннє: 21.08.17
Повідомлень: 644

2015-02-03 15:31  
NeetScrool написано:
Малозабезпечені дивляться avi на залізяках початку 00-х.

Буває і гірше...

Gwean написано:
Сумніваюся, що у всіх прямо таки FullHD монітори з IPS матрицею та повним охопленням кольорів) У мене й досі старенький LG 1280x1024.

А це може натяк на те, що вже варто оновлювати залізо та переходити на нові стандарти))))

MadGuy написано:
лол, хто б казав, у самого "пан монітор-квадрат".

LG 24MP55D-P на 24", а старий LG L1952S-BF на 19" чекає на ремонт у шафі, коли відремонтую, то буде 2 монітори під'єднано до ПК)))

Іди перекладай другий мувик! люди чекають!)))

Gwean 
Відео Гуртом - фільмокрай
Відео Гуртом - фільмокрай


З нами з: 28.07.12
Востаннє: 21.08.17
Повідомлень: 449

2015-02-03 15:56  
Arch Enemy написано:
А це може натяк на те, що вже варто оновлювати залізо та переходити на нові стандарти))))


У мене все залізо на нормальному рівні. Монітора тільки не встиг придбати до подорожчання.

MadGuy 
Свій


З нами з: 05.08.11
Востаннє: 21.08.17
Повідомлень: 87

2015-02-03 20:13  
Arch Enemy
а, ну ясно тоді, чого раптом 720р стало якістю для ніщєбродів))

Arch Enemy 
VIP


З нами з: 30.08.12
Востаннє: 21.08.17
Повідомлень: 644

2015-02-03 23:13  
MadGuy написано:
а, ну ясно тоді, чого раптом 720р стало якістю для ніщєбродів))

іди перекладай, щоб оперативно випустити, бо там на весну є одна цікава штука, яка дуже варта уваги))))

Ваш часовий пояс: GMT + 2 Години

Нова тема   Відповісти