Бліч: Спогади в забутті / Gekijouban Bleach: Memories of Nobody / 劇場版 BLEACH ブリーチ MEMORIES OF NOBODY [2006] 1080p Ukr/Jap

Нові коментарі

Нова тема   Відповісти
Автор Повідомлення
Arch Enemy 
VIP


З нами з: 30.08.12
Востаннє: 14.08.17
Повідомлень: 644

2015-02-01 19:45  
Бліч: Спогади в забутті / Gekijouban Bleach: Memories of Nobody



Країна: Японія
Прем'єра: 16.12.2006
Жанр: пригоди, шьонен, комедія, драма
Аніместудія: Studio Pierrot

Тривалість: 01год. 32хв. 52сек.

Режисер: Абе Норіюкі
Автор Оригіналу: Кубо Тайто
Сейю: Моріта Масаказу (Куросакі Ічіґо), Сайто Чіва (Сенна), Іто Кентаро (Абарай Ренджі), Фукуяма Джун (Аясеґава Юмічіка), Янада Кійоюкі (Цукабіші Тессай, Бау), Соумі Йоко (Бенін), Ебара Масаші (Ґанрю), Паку Ромі (Хіцуґая Тошіро), Орікаса Фуміко (Кучікі Рукія), Ніші Рінтаро (Іба Тецузаемон), Мацуока Юкі (Іное Оріхіме), Суґіяма Норіакі (Ішіда Урюу), Мацумото Дай (Джай), Сакурай Такахіро (Кіра Ізуру), Мадоно Міцуакі (Кон), Окіаю Рьотаро (Кучікі Б'якуя), Морікава Тошіюкі (Куросакі Ішін, Рян), Куґімія Ріе (Куросакі Карін), Сена Аюмі (Куросакі Юзу), Накао Рюусей (Куроцучі Маюрі), Мочізукі Хісайо (Кусаджіші Ячіру), Ооцука Акіо (Кіораку Шунсуй), Хіяма Нобуюкі (Мадараме Ікаку), Мацутані Кая (Мацумото Ранґіку), Кондо Такаші (Муе), Ясумото Хірокі (Садо Ясутора), Кавакамі Томоко (Сой Фон), Ішікава Хідео (Укітаке Джюушіро), Мікі Шінчіро (Урахара Кісуке), Цукада Масаакі (Ямамото-Ґенрюусай Шіґекуні), Тачікі Фуміхіко (Заракі Кенпачі) та інші.

Сюжет:
У затиснутому між Товариством душ та Світом живих просторовому вимірі у небачених раніше масштабах циркулюють потоки енергії, що загрожують порушити звичний баланс всесвіту. Чисті (душі, що випали з кола переродження), які утворили цей вимір, зі сліпим завзяттям полюють на втрачені спогади, зібрані у живому «вмістилищі» - Розарії пам’яті.
Клан «Дарк Уан», якого колись вигнали з Товариства Душ, був приречений на вічні блукання Межисвіттям. Але голова клану, Ґанрю, поклявся помститися і тепер повернувся взяти своє.
А що ж наш герой Куросакі Ічіґо? Він як і досі в парі з Рукією та Коном неквапливо патрулює Каракуру, поки в місті не з’являється дівчина-шініґамі Сенна, яка, звісно ж, і є той самий Розарій пам’яті. І не була б вона вродлива дівчина, якби не потрапила у полон. Проте наш головний герой добре знається на порятунках чарівних пані, тож не на того натрапили! Ух, начувайтеся, кляті крадії красунь!..

© MadGuy

Відео:
якість:
контейнер:
кодек:
частота кадрів: 25 кадрів/сек.
розмір кадру: 1920х1040 пікс.
бітрейт: ~3800 кбіт/сек.
бітність: 8 біт.

Аудіо # 1:
мова: українська, двоголосе закадрове озвучення.
кодек:
кількість каналів: 5.1
бітрейт: 1509 кбіт/сек.
частота: 48000 Гц

Аудіо # 2:
мова: японська, оригінал
кодек:
кількість каналів: 5.1
бітрейт: 1509 кбіт/сек.
частота: 48000 Гц

Джерело озвучення: AniUA

текст читали: Henessi та Kraka
переклад: MadGuy
таймінг звуку: Kohinsan
робота зі звуком: Arch_Enemy

Джерело релізу: AniUA
Скріншоти
Скрінлист
MI
General
Unique ID : 199392463492444783941646215530423675694 (0x96019773EB19AF29A48A1CC6F5326B2E)
Complete name : E:\Anime\[AniUA]_BLEACH_[UKR]\[AniUA]_[Movie_01]_Gekijouban_Bleach_-_Memories_of_Nobody_[2006]_[BDRip_x264_1920x1040_DTS]_[UKR_JAP]_[Hennessi_and_Kraka].
Format :
Format version : Version 4 / Version 2
File size : 4.44 GiB
Duration : 1h 32mn
Overall bit rate : 6 851 Kbps
Movie name : Gekijouban Bleach: Memories of Nobody
Encoded date : UTC 2015-02-01 15:57:39
Writing application : mkvmerge v7.5.0 ('Glass Culture') 64bit built on Jan 4 2015 16:48:44
Writing library : libebml v1.3.1 + libmatroska v1.4.2
DURATION : 01:32:52.064000000
NUMBER_OF_FRAMES : 522381
NUMBER_OF_BYTES : 1051030572
_STATISTICS_WRITING_APP : mkvmerge v7.5.0 ('Glass Culture') 64bit built on Jan 4 2015 16:48:44
_STATISTICS_WRITING_DATE_UTC : 2015-02-01 15:57:39
_STATISTICS_TAGS : BPS DURATION NUMBER_OF_FRAMES NUMBER_OF_BYTES

Video
ID : 1
Format : AVC
Format/Info : Advanced Video Codec
Format profile : [email protected]
Format settings, CABAC : Yes
Format settings, ReFrames : 4 frames
Codec ID : V_MPEG4/ISO/AVC
Duration : 1h 32mn
Bit rate : 3 696 Kbps
Width : 1 920 pixels
Height : 1 040 pixels
Display aspect ratio : 1.85:1
Frame rate mode : Constant
Frame rate : 25.000 fps
Color space : YUV
Chroma subsampling : 4:2:0
Bit depth : 8 bits
Scan type : Progressive
Bits/(Pixel*Frame) : 0.074
Stream size : 2.40 GiB (54%)
Title : http://aniua.com/
Writing library : core 114 r1900 60ef1f8
Encoding settings : cabac=1 / ref=3 / deblock=1:0:0 / analyse=0x3:0x113 / me=hex / subme=7 / psy=1 / psy_rd=1.00:0.00 / mixed_ref=1 / me_range=16 / chroma_me=1 / trellis=1 / 8x8dct=1 / cqm=0 / deadzone=21,11 / fast_pskip=1 / chroma_qp_offset=-2 / threads=12 / sliced_threads=0 / nr=0 / decimate=1 / interlaced=0 / constrained_intra=0 / bframes=3 / b_pyramid=2 / b_adapt=1 / b_bias=0 / direct=1 / weightb=1 / open_gop=0 / weightp=2 / keyint=250 / keyint_min=25 / scenecut=40 / intra_refresh=0 / rc_lookahead=40 / rc=crf / mbtree=1 / crf=18.0 / qcomp=0.60 / qpmin=0 / qpmax=69 / qpstep=4 / ip_ratio=1.40 / aq=1:1.00
Language : Japanese
Default : Yes
Forced : Yes
DURATION : 01:32:51.920000000
NUMBER_OF_FRAMES : 139298
NUMBER_OF_BYTES : 2667217197
_STATISTICS_WRITING_APP : mkvmerge v7.5.0 ('Glass Culture') 64bit built on Jan 4 2015 16:48:44
_STATISTICS_WRITING_DATE_UTC : 2015-02-01 15:57:39
_STATISTICS_TAGS : BPS DURATION NUMBER_OF_FRAMES NUMBER_OF_BYTES

Audio #1
ID : 2
Format :
Format/Info : Digital Theater Systems
Mode : 16
Format settings, Endianness : Big
Codec ID : A_DTS
Duration : 1h 32mn
Bit rate mode : Constant
Bit rate : 1 509 Kbps
Channel(s) : 6 channels
Channel positions : Front: L C R, Side: L R, LFE
Sampling rate : 48.0 KHz
Bit depth : 24 bits
Compression mode : Lossy
Stream size : 1 002 MiB (22%)
Title : Hennessi and Kraka
Language : Ukrainian
Default : Yes
Forced : Yes

Audio #2
ID : 3
Format :
Format/Info : Digital Theater Systems
Mode : 16
Format settings, Endianness : Big
Codec ID : A_DTS
Duration : 1h 32mn
Bit rate mode : Constant
Bit rate : 1 509 Kbps
Channel(s) : 6 channels
Channel positions : Front: L C R, Side: L R, LFE
Sampling rate : 48.0 KHz
Bit depth : 24 bits
Compression mode : Lossy
Stream size : 1 002 MiB (22%)
Title : Original
Language : Japanese
Default : No
Forced : No


Авторський реліз (завантажувати можна без реєстрації)
 Трекер:    Зареєстрований   

Завантажити / скачати аніме українською



відео для новачків



 Зареєстрований:   2015-02-01 19:45
 Розмір:   4.44 GB 
 Оцінка аніме:   10/10 (Голосів: 7)
   
Arch Enemy 
VIP


З нами з: 30.08.12
Востаннє: 14.08.17
Повідомлень: 644

2015-02-01 19:53  
Отака шляпа...

Ми вже давно його планували і колись анонсували з опитуванням, ось таки нарешті і зробили. Насолоджуйтесь)))

P.S.: Усі невдоволення щодо перекладу назви переадресовуються на автовідповідач перекладача, можливо він колись вам відповість.

MadGuy 
Свій


З нами з: 05.08.11
Востаннє: 17.08.17
Повідомлень: 87

2015-02-01 20:01  
Arch Enemy
ну так, правильно, головне - підкреслити, що в назві щось є, а то ж раптом хтось не помітить, а це ж втрата цінних людських ресурсів для назвосрачу...

ImfromUkraine 
VIP


З нами з: 18.02.12
Востаннє: 17.08.17
Повідомлень: 287

2015-02-01 22:14  
Бліч, круто!))
Hentaihunter 
VIP


З нами з: 16.08.08
Востаннє: 17.08.17
Повідомлень: 2362

2015-02-03 18:26  
Якщо ваш дизайнер обкладинки не дуже лінивий, то може використати українізований шрифт Bleach на моєму сайті в "Різному".
Зразок використання шрифту

Arch Enemy 
VIP


З нами з: 30.08.12
Востаннє: 14.08.17
Повідомлень: 644

2015-02-03 23:10  
Hentaihunter написано:
Якщо ваш дизайнер обкладинки не дуже лінивий, то може використати українізований шрифт Bleach на моєму сайті в "Різному".

Дякую, в мене була ідея українізувати назву, але в останній момент передумав, бо раз вже японський варіант був англійською, то вже навіщо нам його перекладати... тому й залишив оригінал і лишень переклали і адаптували назву фільму.
Всеодно дякую, можливо використаю в наступних релізах Бліча, або при створенні ДВД (якщо будуть заявки)))

мамбо 
Поважний учасник


З нами з: 23.12.11
Востаннє: 15.08.17
Повідомлень: 217

2015-02-06 22:26  
Подивився на постер і зразу стільки позитивних спогадів Rolleyes (2)
Arch Enemy 
VIP


З нами з: 30.08.12
Востаннє: 14.08.17
Повідомлень: 644

2015-02-10 20:57  
мамбо написано:
Подивився на постер і зразу стільки позитивних спогадів
В планах усі 4 фільми та 2 ОВАшки.
Серіал навряд чи потягнемо, хоча у нас Спектатор пам'ятаю все клянчив собі в одноголоску інший довгобуд, але на нього нажаль немає охочих умільців (тексту багато), котрі мають навички якісного перекладу.
Тож... маємо, що маємо...

Ваш часовий пояс: GMT + 2 Години

Нова тема   Відповісти