Для того, щоб зникнути (In Order of Disappearance) / Kraftidioten (2014) Ukr/Nor | sub Ukr

Нові коментарі

Нова тема   Відповісти
Автор Повідомлення
SATKUR 
Частий відвідувач


З нами з: 25.05.14
Востаннє: 16.03.19
Повідомлень: 38

2015-01-21 15:58  
Для того, щоб зникнути / In Order of Disappearance / Kraftidioten (2014) Ukr/Nor | sub Ukr

Для того, щоб зникнути (In Order of Disappearance) / Kraftidioten (2014) Ukr/Nor | sub Ukr


Жанр: бойовик, кримінальний, трилер
Країна: Норвегія, Швеція, Данія



Кінокомпанія: Paradox, Paradox Film 2, Film i Väst
Режисер: Ганс Петтер Моланд / Hans Petter Moland
Актори: Стеллан Скарсґард / Stellan Skarsgård, Бірджітт Гйорт Соренсен / Birgitte Hjort Sørensen, Крістофер Гівйю / Kristofer Hivju, Тобіас Сантельманн / Tobias Santelmann, Якоб Офтебро / Jakob Oftebro, Бруно Ґанц / Bruno Ganz, Пал Сверре Гаґен / Pål Sverre Hagen, Андерс Басмо Крістіансен / Anders Baasmo Christiansen, Серґей Тріфунович / Sergej Trifunovic, Петер Андерссон / Peter Andersson, Давід Сакураі / David Sakurai, Стіґ Генрік Гофф / Stig Henrik Hoff, Ґоран Навоєч / Goran Navojec, Атле Антонсен / Atle Antonsen, Ян Ґюннар Ройсе / Jan Gunnar Røise

Сюжет:
У головного героя Нільса страшне горе: йому повідомили, що його син помер від передозування наркотиків. Він не може в це повірити і раптом колишній синовий колега по роботі повідомляє йому, що того помилково вбили наркоторговці. За будь-яку ціну Нільс вирішую дійти від дрібного дилера кокаїну до наркобарона і покарати всіх за смерть сина.


Тривалість: 01:51:53
Якість:
Відео:
кодек:
розмір кадру: 720 х 304
бітрейт: 2055 кб/с

Аудіо # 1:
мова: українська
переклад: одноголосий закадровий
кодек: 5.1
бітрейт: 448 кб/с

Аудіо # 2:
мова: норвезька, сербська
переклад: оригінал
кодек: 5.1
бітрейт: 448 кб/с

Субтитри:
мова: українська
тип: програмні (м'які)
формат: *.srt

Субтитри:
мова: італійська
тип: вбудовані (жорсткі)
формат: титри і текст пісні

Озвучення зроблено SATKUR по субтитрам: ivan vyrvyvuho

Семпл: http://multi-up.com/1027997
Скріншоти
Info
Код:

General
Complete name               : Kraftidioten.2014.Nor.[vo.satkur+nor]..5.1.UA.avi
Format                      : AVI
Format/Info                 : Audio Video Interleave
Format profile              : OpenDML
File size                   : 2.22 GiB
Duration                    : 1 h 51 min
Overall bit rate            : 2 841 kb/s
Writing application         : VirtualDubModRus 1.5.10.2 (build 2542/release)
Writing library             : VirtualDubMod build 2542/release

Video
ID                          : 0
Format                      : MPEG-4 Visual
Format profile              : Advanced [email protected]
Format settings, BVOP       : No
Format settings, QPel       : No
Format settings, GMC        : No warppoints
Format settings, Matrix     : Default (H.263)
Codec ID                    :
Codec ID/Hint               :
Duration                    : 1 h 51 min
Bit rate                    : 2 055 kb/s
Width                       : 720 pixels
Height                      : 304 pixels
Display aspect ratio        : 2.35:1
Frame rate                  : 25.000 FPS
Color space                 : YUV
Chroma subsampling          : 4:2:0
Bit depth                   : 8 bits
Scan type                   : Progressive
Compression mode            : Lossy
Bits/(Pixel*Frame)          : 0.375
Stream size                 : 1.61 GiB (72%)
Writing library             : 62

Audio #1
ID                          : 1
Format                      : AC-3
Format/Info                 : Audio Coding 3
Commercial name             : Dolby Digital
Codec ID                    : 2000
Duration                    : 1 h 51 min
Bit rate mode               : Constant
Bit rate                    : 448 kb/s
Channel(s)                  : 6 channels
Channel layout              : L R C LFE Ls Rs
Sampling rate               : 48.0 kHz
Frame rate                  : 31.250 FPS (1536 SPF)
Bit depth                   : 16 bits
Compression mode            : Lossy
Stream size                 : 359 MiB (16%)
Alignment                   : Split across interleaves
Interleave, duration        : 40  ms (1.00 video frame)
Interleave, preload duratio : 500  ms
Service kind                : Complete Main

Audio #2
ID                          : 2
Format                      : AC-3
Format/Info                 : Audio Coding 3
Commercial name             : Dolby Digital
Codec ID                    : 2000
Duration                    : 1 h 51 min
Bit rate mode               : Constant
Bit rate                    : 320 kb/s
Channel(s)                  : 6 channels
Channel layout              : L R C LFE Ls Rs
Sampling rate               : 48.0 kHz
Frame rate                  : 31.250 FPS (1536 SPF)
Bit depth                   : 16 bits
Compression mode            : Lossy
Stream size                 : 256 MiB (11%)
Alignment                   : Split across interleaves
Interleave, duration        : 40  ms (1.00 video frame)
Interleave, preload duratio : 500  ms
Service kind                : Complete Main
Джерело:


Авторський реліз (завантажувати можна без реєстрації)
 Трекер:    Зареєстрований   

Завантажити / скачати фільм українською



відео для новачків



 Зареєстрований:   2015-01-21 15:58
 Розмір:   2.22 GB 
 Оцінка фільму:   9.3/10 (Голосів: 64)
   
reminor7 
VIP


З нами з: 15.08.11
Востаннє: 10.12.19
Повідомлень: 335

2015-01-21 19:12  
Хороший фільм.
8/10

роман xa 
Поважний учасник


З нами з: 03.03.13
Востаннє: 10.12.19
Повідомлень: 232

2015-01-22 19:42  
Небагатослівний фільм, але мені сподобався 8/10 , особливо парапланеристом на закуску.
Косячок справжній 
VIP


З нами з: 29.02.12
Востаннє: 09.12.19
Повідомлень: 1230

2015-01-26 17:10  
Такий самий відгук ,як і про Брудні гроші - дурня.
S1S 
Свій


З нами з: 10.09.10
Востаннє: 29.11.19
Повідомлень: 70

2015-04-01 16:53  
8/10 Досить непогане кіно.
atomoxod 
Новенький


З нами з: 25.11.14
Востаннє: 01.12.19
Повідомлень: 12

2017-06-30 17:25  
дякую за реліз! Роздайте будь-ласка!
roseintherain 
Новенький


З нами з: 06.02.16
Востаннє: 11.12.19
Повідомлень: 9

2017-11-04 17:41  
9/10, передивлювався неодноразово.

міжнародна назва цього фільму "In Order of Disappearance" - " В порядку зникнення" , хоча ця назва також далека від змісту, просто приліпили до сюжету.
Доречі в 2018 має вийти рімейк з Liam Neeson

wlodko 
Новенький


З нами з: 29.11.07
Востаннє: 01.12.19
Повідомлень: 21

2019-02-12 01:03  
roseintherain
Cold Pursuit - вже на екранах)

shelor 
Новенький


З нами з: 26.02.13
Востаннє: 29.11.19
Повідомлень: 12

2019-02-15 18:35  
Хороший скандинавський фільм. Небагатослівний. З чудовою природою Норвегії.
І ще тут добро перемагає зло...
Рекомендую подивитись хоча б раз. Щоб потім його переглядати не раз.

waldi-hurtom 
VIP


З нами з: 07.10.12
Востаннє: 09.12.19
Повідомлень: 1055

2019-06-09 21:48  
Ну, подивився рімейк з Нісоном 2019-го, цей однозначно кращій. Перегляну колись ще раз.
Einar 
Новенький


З нами з: 29.07.09
Востаннє: 10.12.19
Повідомлень: 20

2019-06-10 15:03  
А хто перекладає прізвища ? Не зовсім привильно. Стеллан Скарґард - Stellan Skarsgård буде Стеллан Скарсґорд. Хоча то напевно дрібниця.
volodymyr_sav 
VIP


З нами з: 07.10.13
Востаннє: 08.12.19
Повідомлень: 1629

2019-09-26 13:34  
Глянув цей норвезький оригінал, після американського й він на порядок гірший. Ці фільми справді як близнюки, за вийнятком кількох дрібних моментів, бо в Америці жінок не б'ють на камеру, а от гомікі й там є, радує тільки, що то жиди.
Гра акторів тут гірша, фільм якийсь зовсім затягнутий. Найкращий момент тут, що серби впорались якісніше за індіанців, хоча перестрілка така ж тупа як і в американців і масовка зовсім ніяка.
Абсолютно непереколиво зіграв головний антагоніст, хоча його лінія дурнувата і в американців. 4/10 - раджу версію з Ліамом

zimushka 
Новенький


З нами з: 17.07.15
Востаннє: 10.12.19
Повідомлень: 1

2019-10-07 16:01  
Назва мала бути "В порядку зникнення", тоді і картинка зрозуміла була б. "Викреслював" по одному.
Ваш часовий пояс: GMT + 2 Години

Нова тема   Відповісти