Очима гризлі / Great Bear Stakeout (2013) 720p Ukr/Eng

Нові коментарі

Нова тема   Відповісти
Автор Повідомлення
AngryBirdsUA 
Свій


З нами з: 24.02.10
Востаннє: 22.10.17
Повідомлень: 3037

2015-01-19 13:37  
Очима гризлі / Great Bear Stakeout (2013) 720p Ukr/Eng

Очима гризлі / Great Bear Stakeout (2013) 720p Ukr/Eng


Країна: Велика Британі



Кінокомпанія: BBC
Режисер: Біллі Конноллі
Сюжет:
Глибоко в Алясці експертна група кінематографістів зніматиме дивовижне життя ведмедів грізлі.


Тривалість: 00:51:22
Якість: [Hurtom]
Відео:
кодек:
розмір кадру: 1280 х 720
бітрейт: 6000 кб/с

Аудіо # 1:
мова: українська
переклад: одноголосий закадровий
кодек: 2.0
бітрейт: 192 кб/с

Аудіо # 2:
мова: англійська
переклад: оригінал
кодек: 5.1
бітрейт: 448 кб/с

Джерело озвучення:
Info
General
Unique ID : 179361787209528095235173151988890160572 (0x86EFD2DD1F6741128946B86B841F4DBC)
Complete name : E:\Great Bear Stakeout (2013) 720p [Ukr.Eng] [Hurtom].
Format :
Format version : Version 4 / Version 2
File size : 2.37 GiB
Duration : 51mn 22s
Overall bit rate : 6 594 Kbps
Encoded date : UTC 2015-01-19 10:20:38
Writing application : mkvmerge v6.1.0 ('Old Devil') built on Mar 4 2013 09:10:42
Writing library : libebml v1.3.0 + libmatroska v1.4.0

Video
ID : 1
Format : AVC
Format/Info : Advanced Video Codec
Format profile : [email protected]
Format settings, CABAC : Yes
Format settings, ReFrames : 8 frames
Codec ID : V_MPEG4/ISO/AVC
Duration : 51mn 22s
Bit rate : 6 000 Kbps
Width : 1 280 pixels
Height : 720 pixels
Display aspect ratio : 16:9
Frame rate mode : Constant
Frame rate : 25.000 fps
Color space : YUV
Chroma subsampling : 4:2:0
Bit depth : 8 bits
Scan type : Progressive
Bits/(Pixel*Frame) : 0.260
Stream size : 2.09 GiB (88%)
Writing library : core 142 r2479 dd79a61
Encoding settings : cabac=1 / ref=8 / deblock=1:-1:-1 / analyse=0x1:0x131 / me=umh / subme=9 / psy=1 / psy_rd=1.00:0.15 / mixed_ref=1 / me_range=16 / chroma_me=1 / trellis=2 / 8x8dct=0 / cqm=0 / deadzone=21,11 / fast_pskip=1 / chroma_qp_offset=-3 / threads=12 / lookahead_threads=1 / sliced_threads=0 / nr=0 / decimate=1 / interlaced=0 / bluray_compat=0 / constrained_intra=0 / bframes=3 / b_pyramid=2 / b_adapt=2 / b_bias=0 / direct=3 / weightb=1 / open_gop=0 / weightp=2 / keyint=250 / keyint_min=25 / scenecut=40 / intra_refresh=0 / rc_lookahead=60 / rc=abr / mbtree=1 / bitrate=6000 / ratetol=1.0 / qcomp=0.60 / qpmin=0 / qpmax=69 / qpstep=4 / vbv_maxrate=50000 / vbv_bufsize=62500 / nal_hrd=none / filler=0 / ip_ratio=1.40 / aq=1:1.00
Default : Yes
Forced : No
Color primaries : BT.709
Transfer characteristics : BT.709
Matrix coefficients : BT.709
Color range : Limited

Audio #1
ID : 2
Format : AC-3
Format/Info : Audio Coding 3
Mode extension : CM (complete main)
Format settings, Endianness : Big
Codec ID : A_AC3
Duration : 51mn 22s
Bit rate mode : Constant
Bit rate : 192 Kbps
Channel(s) : 2 channels
Channel positions : Front: L R
Sampling rate : 48.0 KHz
Bit depth : 16 bits
Compression mode : Lossy
Delay relative to video : -80ms
Stream size : 70.5 MiB (3%)
Language : Ukrainian
Default : Yes
Forced : No

Audio #2
ID : 3
Format : AC-3
Format/Info : Audio Coding 3
Mode extension : CM (complete main)
Format settings, Endianness : Big
Codec ID : A_AC3
Duration : 51mn 22s
Bit rate mode : Constant
Bit rate : 448 Kbps
Channel(s) : 2 channels
Channel positions : Front: L R
Sampling rate : 48.0 KHz
Bit depth : 16 bits
Compression mode : Lossy
Delay relative to video : -80ms
Stream size : 165 MiB (7%)
Language : English
Default : No
Forced : No


Джерело:


 Трекер:    Зареєстрований   

Завантажити / скачати фільм українською



відео для новачків



 Зареєстрований:   2015-01-19 13:37
 Розмір:   2.37 GB 
 Оцінка фільму:   7/10 (Голосів: 9)
   
Ваш часовий пояс: GMT + 2 Години

Нова тема   Відповісти