Астробой / Astro Boy (2009) 720p Ukr/Eng | Sub Eng

Нові коментарі

Нова тема   Відповісти
Автор Повідомлення
braveboy 
Відео Гуртом - команда HD
Відео Гуртом - команда HD


З нами з: 15.06.10
Востаннє: 13.08.17
Повідомлень: 949

2015-01-18 19:13  

Астробой / Astro Boy (2009) 720p Ukr/Eng | Sub Eng


Астробой / Astro Boy (2009) 720p Ukr/Eng | Sub Eng

«Він створений для пригоди»

Жанр: анімація, бойовик, сімейний, фантастика
Країна: Гонгконг, США, Японія



Кінокомпанія: Imagi Animation Studios, Imagi Crystal, Tezuka Production Company Ltd.
Режисер: David Bowers
Актори: Фредді Хаймор, Ніколас Кейдж, Білл Нагі, Крістен Белл, Дональд Сазерленд, Юджин Леві, Метт Лукас, Натан Лейн, Мадлен Керролл, Стерлінг Бомон

Сюжет:
У летючому мегаполісі Метро живе геніальний вчений доктор Тенма. Оплакуючи свого загиблого сина Тобі, він створює АстроБоя, хлопчика-робота, якого робить схожим на свого сина та якого він наділяє надприродними здібностями супер-героя.
Живить хлопчика "блакитна" - позитивна енергія. Саме за цією енергію ганяється теперішній президент Метро-сіті, цілком аморальна людина, яка не зупиниться ні перед чим, аби знову виграти вибори.
Хлопчику доведеться пережити відвернення батька, бої за своє життя як у Метро-сіті, так і на Поверхні. А головне - знайти своє місце в житті.


Тривалість: 01:33:48
Якість: 720p
Відео:
кодек:
розмір кадру: 1280 х 546
бітрейт: 3461 кб/с

Аудіо # 1:
мова: українська
переклад: багатоголосий закадровий
кодек: 5.1
бітрейт: 384 кб/с

Аудіо # 2:
мова: англійська
переклад: оригінал
кодек: 5.1
бітрейт: 1509 кб/с

Джерело озвучення:


Субтитри:
мова: англійська
тип: програмні (м'які)
формат: *.srt
Info
Video
ID : 1
Format : AVC
Format/Info : Advanced Video Codec
Format profile : [email protected]
Format settings, CABAC : Yes
Format settings, ReFrames : 9 frames
Codec ID : V_MPEG4/ISO/AVC
Duration : 1h 33mn
Bit rate : 3 461 Kbps
Width : 1 280 pixels
Height : 546 pixels
Display aspect ratio : 2.35:1
Frame rate mode : Constant
Frame rate : 23.976 fps
Color space : YUV
Chroma subsampling : 4:2:0
Bit depth : 8 bits
Scan type : Progressive
Bits/(Pixel*Frame) : 0.207
Stream size : 2.27 GiB (63%)
Title : Astro Boy (2009) 720p
Language : English
Default : Yes
Forced : No

Audio #1
ID : 2
Format : AC-3
Format/Info : Audio Coding 3
Mode extension : CM (complete main)
Format settings, Endianness : Big
Codec ID : A_AC3
Duration : 1h 33mn
Bit rate mode : Constant
Bit rate : 384 Kbps
Channel(s) : 6 channels
Channel positions : Front: L C R, Side: L R, LFE
Sampling rate : 48.0 KHz
Bit depth : 16 bits
Compression mode : Lossy
Stream size : 258 MiB (7%)
Title : 5.1 @ 384 kbps [1+1]
Language : Ukrainian
Default : Yes
Forced : No

Audio #2
ID : 3
Format :
Format/Info : Digital Theater Systems
Mode : 16
Format settings, Endianness : Big
Codec ID : A_DTS
Duration : 1h 33mn
Bit rate mode : Constant
Bit rate : 1 509 Kbps
Channel(s) : 6 channels
Channel positions : Front: L C R, Side: L R, LFE
Sampling rate : 48.0 KHz
Bit depth : 24 bits
Compression mode : Lossy
Stream size : 1 013 MiB (28%)
Title : -ES 5.1 @ 1.5 Mbps
Language : English
Default : No
Forced : No

Text
ID : 4
Format : UTF-8
Codec ID : S_TEXT/UTF8
Codec ID/Info : UTF-8 Plain Text
Title : Full
Language : English
Default : No
Forced : No

Menu
00:00:00.000 : en:Chapter 1
00:05:26.492 : en:Chapter 2
00:12:40.509 : en:Chapter 3
00:17:41.602 : en:Chapter 4
00:22:41.151 : en:Chapter 5
00:26:56.489 : en:Chapter 6
00:29:30.393 : en:Chapter 7
00:33:34.762 : en:Chapter 8
00:37:24.784 : en:Chapter 9
00:42:14.240 : en:Chapter 10
00:47:46.321 : en:Chapter 11
00:52:19.052 : en:Chapter 12
00:57:24.357 : en:Chapter 13
01:00:14.611 : en:Chapter 14
01:06:49.005 : en:Chapter 15
01:13:00.959 : en:Chapter 16
01:18:20.028 : en:Chapter 17
01:22:15.347 : en:Chapter 18
Скріншоти



Джерело:
Особиста оцінка: 0 - не дивився


 Трекер:    Зареєстрований   

Завантажити / скачати мультфільм українською



відео для новачків



 Зареєстрований:   2015-01-18 19:18
 Розмір:   3.58 GB 
 Оцінка мультфільму:   9.7/10 (Голосів: 9)
   
Інші релізи
   Астробой / Astro Boy (2009) 1080p ethan cole  4 / 0   4.33 GB   2012-11-19 01:51 
   Астробой / Astro Boy (2009) Ukr/Eng | Sub Eng rooster  3 / 3   1.7 GB   2010-09-22 11:46 
BMK12 
Відео Гуртом - підтримка та поширення
Відео Гуртом - підтримка та поширення


З нами з: 13.04.09
Востаннє: 23.08.17
Повідомлень: 3110

2016-02-15 23:03  
Цікавий мультфільм.
Ваш часовий пояс: GMT + 2 Години

Нова тема   Відповісти