Бандера та бандерівці. Викриття кремлівських міфів / Бандера и бандеровцы. Разоблачение кремлевских мифов (2015) 1080p Rus

Нові коментарі

Нова тема   Відповісти
Автор Повідомлення
tarasyk98 
Поважний учасник


З нами з: 19.12.13
Востаннє: 16.10.17
Повідомлень: 201

2015-01-17 19:38  
Бандера та бандерівці. Викриття кремлівських міфів / Бандера и бандеровцы. Разоблачение кремлевских мифов (2015) 1080p Rus

Бандера та бандерівці. Викриття кремлівських міфів / Бандера и бандеровцы. Разоблачение кремлевских мифов (2015) 1080p Rus


Жанр: історичний, документальний, короткометражний
Країна: Україна

Сюжет:
Для тих, хто досі не зрозумів, хто такі бандерівці, ця короткометражна документалка стане відкриттям.


Тривалість: 00:10:54
Якість: 1080p
Відео:
кодек:
розмір кадру: 1920х1080
бітрейт: 3263 кб/c
Аудіо:
мова: російська
переклад: оригінал
кодек: 2.0
бітрейт: 126 кб/c
Info
General
Complete name : D:\Відео\Бандера та бандерівці. Викриття кремлівських міфів (2015) 1080p [Hurtom].mp4
Format : MPEG-4
Format profile : Base Media
Codec ID : isom
File size : 265 MiB
Duration : 10mn 54s
Overall bit rate mode : Variable
Overall bit rate : 3 395 Kbps
Encoded date : UTC 1970-01-01 00:00:00
Tagged date : UTC 1970-01-01 00:00:00
Writing application : Lavf52.93.0

Video
ID : 1
Format : AVC
Format/Info : Advanced Video Codec
Format profile : [email protected]
Format settings, CABAC : Yes
Format settings, ReFrames : 2 frames
Codec ID : avc1
Codec ID/Info : Advanced Video Coding
Duration : 10mn 53s
Bit rate : 3 263 Kbps
Width : 1 920 pixels
Height : 1 080 pixels
Display aspect ratio : 16:9
Frame rate mode : Constant
Frame rate : 29.970 fps
Color space : YUV
Chroma subsampling : 4:2:0
Bit depth : 8 bits
Scan type : Progressive
Bits/(Pixel*Frame) : 0.053
Stream size : 254 MiB (96%)
Encoded date : UTC 1970-01-01 00:00:00
Tagged date : UTC 1970-01-01 00:00:00

Audio
ID : 2
Format :
Format/Info : Advanced Audio Codec
Format profile : LC
Codec ID : 40
Duration : 10mn 54s
Bit rate mode : Variable
Bit rate : 126 Kbps
Channel(s) : 2 channels
Channel positions : Front: L R
Sampling rate : 44.1 KHz
Compression mode : Lossy
Stream size : 9.79 MiB (4%)
Encoded date : UTC 1970-01-01 00:00:00
Tagged date : UTC 1970-01-01 00:00:00
Скріншоти


Джерело:
Особиста оцінка: 10 - без зайвих вагань рекомендую всім!


 Трекер:    Зареєстрований   

Завантажити / скачати фільм українською



відео для новачків



 Зареєстрований:   2015-01-17 22:01
 Розмір:   265 MB 
 Оцінка фільму:   10/10 (Голосів: 18)
   
Pinguin 
Поважний учасник


З нами з: 08.04.12
Востаннє: 18.10.17
Повідомлень: 219

2015-01-17 22:30  

Virake 
Localize Team
Localize Team


З нами з: 07.07.09
Востаннє: 19.10.17
Повідомлень: 4609

2015-01-18 06:01  
"Дніпропетровськ - найпатріотичніше місто України" *facepalm*
ну, але крім цього, начебто все правда. молодці, що таке випускають - буде чим російське пропагандне лайно розбавити.

Maters 
VIP


З нами з: 27.03.12
Востаннє: 18.10.17
Повідомлень: 1326

2015-01-19 00:26  
Virake написано:
молодці, що таке випускають - буде чим російське пропагандне лайно розбавити

хоч трохи буде чим, а то кацапи таке вже штампують. що в тих людей в голові робиться, щоб таке вигадувати...

Ваш часовий пояс: GMT + 2 Години

Нова тема   Відповісти