Таємне життя тварин / Life Story (2014) 720p Ukr/Eng

Нові коментарі

Нова тема   Відповісти
Автор Повідомлення
AngryBirdsUA 
Свій


З нами з: 24.02.10
Востаннє: 11.12.17
Повідомлень: 3042

2015-01-16 18:44  
Таємне життя тварин / Life Story (2014) 720p Ukr/Eng


Жанр: документальний
Країна: Велика Британія



Кінокомпанія: British Broadcasting Corporation (BBC)
Сюжет:
к відбувається перше полювання двох гепардів, яким чином самиця горбатого кита захищає дитинча від акул і завдяки чому група сурикатів змогла подолати кобру – рідкісні кадри покажуть життя тварин з нового ракурсу.

Перші польоти гусаків у Гренландії, виживання молодих тигрів в Індії після розлучення з батьками, розвиток відносин у зграї шимпанзе і вирішення суперечок між кенгуру за допомогою боксерського поєдинку… Побачте “Таємне життя тварин” на кожному його етапі – від перших кроків до дорослішання.


Перелік серій:
1. Перші кроки / First Steps
2. Дорослішанння / Growing Up
3. Дім / Home
4. Влада / Power
5. Залицяння / Courtship
6. Батьківство / Parenthood

Тривалість: 6 x ~50 хв.
Якість: (Hurtom)
Відео:
кодек:
розмір кадру: 1280 х 720
бітрейт: 6500 кб/с

Аудіо # 1:
мова: українська
переклад: одноголосий закадровий (псевдо дубляж)
кодек: 2.0
бітрейт: 192 кб/с

Аудіо # 2:
мова: англійська
переклад: оригінал
кодек: 5.1
бітрейт: 448 кб/с

Джерело озвучення:
Info
General
Unique ID : 204957695248707246056617134139779310370 (0x9A316A9018326DFDB2279F05AAEFE322)
Complete name : D:\Life Story (2014) 720p [Ukr.Eng] [Hurtom]\E02 - Growing Up (2014) 720p [Ukr.Eng] [Hurtom].
Format :
Format version : Version 4 / Version 2
File size : 2.43 GiB
Duration : 48mn 45s
Overall bit rate : 7 143 Kbps
Encoded date : UTC 2015-01-17 07:01:17
Writing application : mkvmerge v6.1.0 ('Old Devil') built on Mar 4 2013 09:10:42
Writing library : libebml v1.3.0 + libmatroska v1.4.0

Video
ID : 1
Format : AVC
Format/Info : Advanced Video Codec
Format profile : [email protected]
Format settings, CABAC : Yes
Format settings, ReFrames : 8 frames
Codec ID : V_MPEG4/ISO/AVC
Duration : 48mn 45s
Bit rate : 6 500 Kbps
Width : 1 280 pixels
Height : 720 pixels
Display aspect ratio : 16:9
Frame rate mode : Constant
Frame rate : 25.000 fps
Color space : YUV
Chroma subsampling : 4:2:0
Bit depth : 8 bits
Scan type : Progressive
Bits/(Pixel*Frame) : 0.282
Stream size : 2.17 GiB (89%)
Writing library : core 142 r2479 dd79a61
Encoding settings : cabac=1 / ref=8 / deblock=1:-1:-1 / analyse=0x1:0x131 / me=umh / subme=9 / psy=1 / psy_rd=1.00:0.15 / mixed_ref=1 / me_range=16 / chroma_me=1 / trellis=2 / 8x8dct=0 / cqm=0 / deadzone=21,11 / fast_pskip=1 / chroma_qp_offset=-3 / threads=12 / lookahead_threads=1 / sliced_threads=0 / nr=0 / decimate=1 / interlaced=0 / bluray_compat=0 / constrained_intra=0 / bframes=3 / b_pyramid=2 / b_adapt=2 / b_bias=0 / direct=3 / weightb=1 / open_gop=0 / weightp=2 / keyint=250 / keyint_min=25 / scenecut=40 / intra_refresh=0 / rc_lookahead=60 / rc=2pass / mbtree=1 / bitrate=6500 / ratetol=1.0 / qcomp=0.60 / qpmin=0 / qpmax=69 / qpstep=4 / cplxblur=20.0 / qblur=0.5 / vbv_maxrate=50000 / vbv_bufsize=62500 / nal_hrd=none / filler=0 / ip_ratio=1.40 / aq=1:1.00
Default : Yes
Forced : No
Color primaries : BT.709
Transfer characteristics : BT.709
Matrix coefficients : BT.709
Color range : Limited

Audio #1
ID : 2
Format : AC-3
Format/Info : Audio Coding 3
Mode extension : CM (complete main)
Format settings, Endianness : Big
Codec ID : A_AC3
Duration : 48mn 45s
Bit rate mode : Constant
Bit rate : 192 Kbps
Channel(s) : 2 channels
Channel positions : Front: L R
Sampling rate : 48.0 KHz
Bit depth : 16 bits
Compression mode : Lossy
Delay relative to video : -80ms
Stream size : 66.9 MiB (3%)
Language : Ukrainian
Default : Yes
Forced : No

Audio #2
ID : 3
Format : AC-3
Format/Info : Audio Coding 3
Mode extension : CM (complete main)
Format settings, Endianness : Big
Codec ID : A_AC3
Duration : 48mn 45s
Bit rate mode : Constant
Bit rate : 448 Kbps
Channel(s) : 6 channels
Channel positions : Front: L C R, Side: L R, LFE
Sampling rate : 48.0 KHz
Bit depth : 16 bits
Compression mode : Lossy
Delay relative to video : -5ms
Stream size : 156 MiB (6%)
Language : English
Default : No
Forced : No


Поядки:
за постер пану Gelios.
за переклад субтитрів пану Віктору.
за допомогу у синхронізації пану Romario_O.


Джерело:
Особиста оцінка: 10 - без зайвих вагань рекомендую всім!


Срібний реліз (на рейтинг впливає 50% завантаженого)
 Трекер:    Зареєстрований   

Завантажити / скачати фільм українською



відео для новачків



 Зареєстрований:   2015-01-18 18:07
 Розмір:   14.76 GB 
 Оцінка фільму:   8.9/10 (Голосів: 26)
   
tribus 
VIP


З нами з: 22.10.14
Востаннє: 14.10.17
Повідомлень: 582

2015-01-16 22:48  
Бачив оригінал, я був в захваті від побаченого. На додачу до гарно знятого матеріалу, Девід Аттенборо (David Attenborough) протягом всього перегляду супроводжує глядача не відпускаючи його ні намить... Бракує слів, просто шедевр. Як буде час перегляну ще раз. Vasua95 підтримую, 10 - без зайвих вагань рекомендую всім!
У цьому ролику, проглядається певна філософія. Варто переглянути хоча б його, якщо ви не великий шанувальник документальних фільмів.
Elephants discover an ancestor's bones - Life Story: Episode 6 preview - BBC One

Mr.Emm 
Поважний учасник


З нами з: 03.08.08
Востаннє: 11.12.17
Повідомлень: 209

2015-01-17 21:50  
Цитата:
Бракує слів, просто шедевр

О_О

Танцюю гопака...

wolesj 
VIP


З нами з: 15.07.12
Востаннє: 10.12.17
Повідомлень: 469

2015-01-18 19:03  
Цей серіал має конспект Life Story. The Full Circle Happy

Тілький не розумію, навіщо напускати туману: "Таємне", це просто життя, навіть якщо деякі його особливості маловідомі.

AngryBirdsUA 
Свій


З нами з: 24.02.10
Востаннє: 11.12.17
Повідомлень: 3042

2015-01-18 19:12  
wolesj
Не я перекладав.

Додано через 47 секунд:

wolesj написано:
Цей серіал має конспект Life Story. The Full Circle

Воно вийшло у 2015 році його не транслювали і на бд не було.

Додано через 8 хвилин 22 секунди:

Буде ще SD але раджу дивитися в hd.

dniprodd 
Поважний учасник


З нами з: 31.10.09
Востаннє: 11.12.17
Повідомлень: 187

2015-01-18 20:26  
нам на радість багато є документалки bbc. це колись було на толоці? чи щось новеньке? бо нібито щось схоже було
AngryBirdsUA 
Свій


З нами з: 24.02.10
Востаннє: 11.12.17
Повідомлень: 3042

2015-01-18 20:27  
dniprodd
Це нове.

munipet 
Поважний учасник


З нами з: 14.04.11
Востаннє: 31.07.16
Повідомлень: 227

2015-01-19 09:29  
ДАВАЙ АВІ ЧУВАК
lcds 
Свій


З нами з: 08.07.13
Востаннє: 10.12.16
Повідомлень: 110

2015-04-12 19:06  
Які барви... Дякую.
Ua.bos_01 
VIP


З нами з: 22.06.15
Востаннє: 10.12.17
Повідомлень: 1441

2016-04-26 20:04  
Якісний, повчальний, розвиваючий документальний проект. Дуже добре підходить для відео-уроків для дитини, сам так роблю, постійно переглядаю схожі фільми з донькою. Є позитивний результат. Раджу до перегляду.
omordach 
Свій


З нами з: 31.10.09
Востаннє: 10.12.17
Повідомлень: 112

2017-09-13 22:32  
Станьте хточь на роздачу будь ласка. Чекати 5 днів то задовго навіть для цієї документалки Sad (1)
Ваш часовий пояс: GMT + 2 Години

Нова тема   Відповісти