Планета мавп / Monkeys Revealed (2014) HDTV 1080i Ukr/Eng

Нові коментарі

Нова тема   Відповісти
Автор Повідомлення
AngryBirdsUA 
Свій


З нами з: 24.02.10
Востаннє: 16.12.17
Повідомлень: 3042

2015-01-11 22:08  
Планета мавп / Monkeys Revealed (2014) HDTV 1080i Ukr/Eng





Жанр: документальний
Країна: Велика Британія

Телеканал / кіностудія: BBC
Режисер: Розі Томас
Сюжет:
У нас співпадає 91% генів. Вони так само, як і ми, проявляють гнів, радість та печаль. Як і люди, хворіють на грип, запалення легенів та навіть СНІД. Людина і мавпа мають набагато більше спільних рис, ніж здається на перший погляд.

У природі існує понад 4 сотні видів приматів. Ви побачите найяскравіших їх представників: від павукоподібних мавп Мадагаскару, жовтих павіанів Східної Африки та макак із тропічних лісів Амазонки до рідкісних видів шимпанзе, гібонів та орангутанів Бразилії і Перу.


Тривалість: 3 x ~ 47хв.
Якість:
Відео:
кодек:
розмір кадру: 1920 х 1080
бітрейт: ~5000 кб/с

Аудіо # 1:
мова: українська
переклад: професійний дубльований
кодек: 2.0
бітрейт: 192 кб/с

Аудіо # 2:
мова: англійська
переклад: оригінал
кодек: 2.0
бітрейт: 192 кб/с

Джерело озвучення:
Info
General
Unique ID : 231521781764885108917436359247802577757 (0xAE2D7925767E0EA1BEB3CD1E416EB35D)
Complete name : E:\Monkeys Revealed (2014) HDTV 1080i [Ukr.Eng] [Hurtom]\E01 - Meet the Family (2014) HDTV 1080i [Ukr.Eng] [Hurtom].
Format :
Format version : Version 4 / Version 2
File size : 1.84 GiB
Duration : 48mn 13s
Overall bit rate : 5 473 Kbps
Encoded date : UTC 2015-01-11 18:44:18
Writing application : mkvmerge v6.1.0 ('Old Devil') built on Mar 4 2013 09:10:42
Writing library : libebml v1.3.0 + libmatroska v1.4.0

Video
ID : 1
Format : AVC
Format/Info : Advanced Video Codec
Format profile : [email protected]
Format settings, CABAC : Yes
Format settings, ReFrames : 4 frames
Format settings, GOP : M=3, N=12
Codec ID : V_MPEG4/ISO/AVC
Duration : 48mn 13s
Bit rate : 4 980 Kbps
Width : 1 920 pixels
Height : 1 080 pixels
Display aspect ratio : 16:9
Frame rate mode : Constant
Frame rate : 25.000 fps
Color space : YUV
Chroma subsampling : 4:2:0
Bit depth : 8 bits
Scan type : MBAFF
Scan order : Top Field First
Bits/(Pixel*Frame) : 0.096
Stream size : 1.68 GiB (91%)
Default : Yes
Forced : No
Color primaries : BT.709
Transfer characteristics : BT.709
Matrix coefficients : BT.709
Color range : Limited

Audio #1
ID : 2
Format : AC-3
Format/Info : Audio Coding 3
Mode extension : CM (complete main)
Format settings, Endianness : Big
Codec ID : A_AC3
Duration : 48mn 13s
Bit rate mode : Constant
Bit rate : 192 Kbps
Channel(s) : 2 channels
Channel positions : Front: L R
Sampling rate : 48.0 KHz
Bit depth : 16 bits
Compression mode : Lossy
Delay relative to video : -11ms
Stream size : 66.2 MiB (4%)
Language : Ukrainian
Default : Yes
Forced : No

Audio #2
ID : 3
Format : AC-3
Format/Info : Audio Coding 3
Mode extension : CM (complete main)
Format settings, Endianness : Big
Codec ID : A_AC3
Duration : 48mn 13s
Bit rate mode : Constant
Bit rate : 192 Kbps
Channel(s) : 2 channels
Channel positions : Front: L R
Sampling rate : 48.0 KHz
Bit depth : 16 bits
Compression mode : Lossy
Delay relative to video : -11ms
Stream size : 66.2 MiB (4%)
Language : English
Default : No
Forced : No


Джерело:
Особиста оцінка: 10 - без зайвих вагань рекомендую всім!


 Трекер:    Зареєстрований   

Завантажити / скачати фільм українською



відео для новачків



 Зареєстрований:   2015-01-11 22:08
 Розмір:   5.57 GB 
 Оцінка фільму:   7.3/10 (Голосів: 10)
   
bot 
робот


З нами з: 30.09.07
Востаннє: 26.05.05
Повідомлень: 17898

2015-01-11 22:08  
Тему перенесено з Фільми в HD до форуму Документальні фільми в HD


Vasua95

AngryBirdsUA 
Свій


З нами з: 24.02.10
Востаннє: 16.12.17
Повідомлень: 3042

2015-01-11 22:14  
Незабаром оновлю sd.
raptori 
Новенький


З нами з: 20.02.11
Востаннє: 07.12.17
Повідомлень: 5

2015-02-09 03:30  
Дивились всією сімєю ) Супер
Ваш часовий пояс: GMT + 2 Години

Нова тема   Відповісти