Кун-фу панда 3D / Kung Fu Panda (2008) 1080p 3D [Half OverUnder] Ukr/Eng | Sub Ukr/Eng

Нові коментарі

Нова тема   Відповісти
Автор Повідомлення
Anonymous 







2015-01-11 17:48  
Кун-фу панда 3D / Kung Fu Panda (2008) 1080p 3D [Half OverUnder] Ukr/Eng | Sub Ukr/Eng



Жанр: анімаційний, пригодницький, комедія
Країна: США



Кінокомпанія: DreamWorks Animation, Pacific Data Images (PDI)
Режисери: Марк Озборн / Mark Osborne, Джон Стівенсон / John Stevenson
Композитори: Джон Павел / John Powell, Ганс Ціммер / Hans Zimmer)
Актори: Джек Блeк / Jack Black, Дастiн Гофмен / Dustin Hoffman, Анджеліна Джолі / Angelina Jolie, Йєн МакШейн / Ian McShane, Джекі Чан / Jackie Chan, Сет Роґен / Seth Rogen, Люсі Ліу / Lucy Liu, Дейвід Крос / David Cross, Рендал Дук Кім / Randall Duk Kim, Джеймс Гонґ / James Hong, Ден Фоґлер /Dan Fogler, Майкл Кларк Дункан / Michael Clarke Duncan та інші.

Сюжет:
Панда По є найбільш ледачий серед усіх тварин у Долині Світу, але за примхою долі саме він виявляється обранцем Дракона і має стати великим воїном кун-фу, аби перемогти леґендарного бійця-барса, чия поява загрожує смертю усім мешканцям долини.
Номінації та цікаві факти

Оскар, 2009 рік
Номінації (1):
Найкращий анімаційний фільм

Золотий ґлобус, 2009 рік
Номінації (1):
Найкращий анімаційний фільм

Жорж, 2009 рік
Номінації (1):
Найкращий анімаційний фільм

Цікаві факти про фільм


• Імена головних героїв обрані з реальних слів китайської мови. Ши Фу означає «вчитель», Тай Лунь - «великий дракон», Уґвей - «черепаха».
• При втечі Тай Луня з в'язниці в нього запускають 5 стріл, поруч з ним встромляються 4 (5-у він тут же «відсилає» назад), але через кілька секунд поруч з ним встромлені вже 5 стріл.
• У китайській локалізації фільму Майстра Журавля озвучував Джейсі Чан (син Джекі Чана).
• Коли По потрапляє в Нефритовий Зал, він бачить броню Літаючого Воїна-Носорога, що за стилістикою нагадує броню Залізної Людини (ті ж кольори, такий самий отвір у грудях).
• Бюджет - $130,000,000

Рейтинг MPAA: PG - рекомендується присутність батьків
Вікова категорія: 0+

Тривалість: 01:31:59
Якість: 1080p 3D [Half OverUnder]
Відео:
кодек:
розмір кадру: 1920 х 1080
бітрейт: 11,1 Мбіт/с

Аудіо # 1:
мова: українська
переклад: професійний дубльований
кодек: 5.1
бітрейт: 640 кбіт/с
Інформація про озвучення

Режисер дубляжу: Ольга Фокіна
Перекладач і автор синхронного тексту: Олекса Негребецький
Ролі дублювали: Джек Блек/По – Юрій Ребрик, Тато – Микола Луценко, Рендалл Дук Кім/Майстер Уґвей – Василь Мазур, Дастін Гоффман/Майстер Шіфу – Богдан Ступка, Анджеліна Джолі/Тигриця – Катерина Коновалова, Джекі Чан/Мавпа – Андрій Самінін, Дейвід Кросс/Журавель – Володимир Голосняк, Люсі Ліу/Гадюка – Ірина Ткаленко, Сет Роґан/ Богомол – Анатолій Пашнін, Йєн МакШейн/Тайлунь – Михайло Жонін, Дзень - Павло Скороходько, Гол.бандит/Кабан - Петро Сова, Селянин/Алігатор - Роман Чорний, Лисиця/Кролиця - Людмила Барбір, Офіціант/Свин/Брат 2 - Дмитро Сова, Кроличка - Ганна Кузіна, Кроличок - Олексій Малишев, Брат 1/Свин 3 з палацу/Носоріг - Сергій Солопай, Командир - Анатолій Чумаченко; Масовка: Петро Сова, Людмила Барбір, Ганна Кузіна, Сергій Солопай, Дмитро Сова, Роман Чорний.
Аудіо # 2:
мова: англійська
переклад: оригінал
кодек: 5.1
бітрейт: 640 кбіт/с

Субтитри:
мова: українська
тип: програмні (м'які)
формат: *.srt

Субтитри:
мова: англійська
тип: програмні (м'які)
формат: *.srt
Info
Код:
General
Unique ID                                : 241182572231696321604064709433581105296 (0xB57212E4115167FF9143C57438C7F090)
Complete name                            : Kung Fu Panda (2008) [Ukr,Eng sub.Ukr,Eng] 1080p 3D Half-OU [Hurtom & HDClub].
Format                                   :
Format version                           : Version 4 / Version 2
File size                                : 7.95 GiB
Duration                                 : 1h 32mn
Overall bit rate                         : 12.4 Mbps
Movie name                               : Кунг-фу Панда / Kung Fu Panda (2008) [Ukr,Eng sub.Ukr,Eng] 1080p 3D Half-OU [Hurtom & HDClub]
Encoded date                             : UTC 2015-01-11 06:47:32
Writing application                      : mkvmerge v7.4.0 ('Circles') 64bit built on Dec 12 2014 12:19:56
Writing library                          : libebml v1.3.0 + libmatroska v1.4.1
DURATION                                 : 01:31:34.114000000
NUMBER_OF_FRAMES                         : 946
NUMBER_OF_BYTES                          : 43417
_STATISTICS_WRITING_APP                  : mkvmerge v7.4.0 ('Circles') 64bit built on Dec 12 2014 12:19:56
_STATISTICS_WRITING_DATE_UTC             : 2015-01-11 06:47:32
_STATISTICS_TAGS                         : BPS DURATION NUMBER_OF_FRAMES NUMBER_OF_BYTES

Video
ID                                       : 1
Format                                   : AVC
Format/Info                              : Advanced Video Codec
Format profile                           : [email protected]
Format settings, CABAC                   : Yes
Format settings, ReFrames                : 4 frames
Codec ID                                 : V_MPEG4/ISO/AVC
Duration                                 : 1h 32mn
Bit rate                                 : 11.1 Mbps
Width                                    : 1 920 pixels
Height                                   : 1 080 pixels
Display aspect ratio                     : 16:9
Frame rate mode                          : Constant
Frame rate                               : 23.976 fps
Color space                              : YUV
Chroma subsampling                       : 4:2:0
Bit depth                                : 8 bits
Scan type                                : Progressive
Bits/(Pixel*Frame)                       : 0.223
Stream size                              : 6.97 GiB (88%)
Title                                    : Кунг-фу Панда / Kung Fu Panda (2008) 1080p 3D Half-OU
Writing library                          : core 142 r2389+1 201b266
Encoding settings                        : cabac=1 / ref=4 / deblock=1:-3:-3 / analyse=0x3:0x113 / me=umh / subme=11 / psy=1 / psy_rd=1.00:0.00 / mixed_ref=1 / me_range=32 / chroma_me=1 / trellis=2 / 8x8dct=1 / cqm=0 / deadzone=21,11 / fast_pskip=0 / chroma_qp_offset=-2 / threads=12 / lookahead_threads=1 / sliced_threads=0 / nr=0 / decimate=0 / interlaced=0 / bluray_compat=0 / constrained_intra=0 / bframes=6 / b_pyramid=2 / b_adapt=2 / b_bias=0 / direct=3 / weightb=1 / open_gop=0 / weightp=2 / keyint=250 / keyint_min=23 / scenecut=40 / intra_refresh=0 / rc=2pass / mbtree=0 / bitrate=11092 / ratetol=1.0 / qcomp=0.60 / qpmin=10 / qpmax=51 / qpstep=4 / cplxblur=20.0 / qblur=0.5 / frame-packing=4 / ip_ratio=1.40 / pb_ratio=1.30 / aq=1:1.00
Language                                 : English
Default                                  : Yes
Forced                                   : No

Audio #1
ID                                       : 2
Format                                   : AC-3
Format/Info                              : Audio Coding 3
Mode extension                           : CM (complete main)
Format settings, Endianness              : Big
Codec ID                                 : A_AC3
Duration                                 : 1h 32mn
Bit rate mode                            : Constant
Bit rate                                 : 640 Kbps
Channel(s)                               : 6 channels
Channel positions                        : Front: L C R, Side: L R, LFE
Sampling rate                            : 48.0 KHz
Bit depth                                : 16 bits
Compression mode                         : Lossy
Stream size                              : 421 MiB (5%)
Title                                    : Dub [Blu-ray CEE] 5.1 640 kbps
Language                                 : Ukrainian
Default                                  : Yes
Forced                                   : No

Audio #2
ID                                       : 3
Format                                   : AC-3
Format/Info                              : Audio Coding 3
Mode extension                           : CM (complete main)
Format settings, Endianness              : Big
Codec ID                                 : A_AC3
Duration                                 : 1h 32mn
Bit rate mode                            : Constant
Bit rate                                 : 640 Kbps
Channel(s)                               : 6 channels
Channel positions                        : Front: L C R, Side: L R, LFE
Sampling rate                            : 48.0 KHz
Bit depth                                : 16 bits
Compression mode                         : Lossy
Stream size                              : 421 MiB (5%)
Title                                    : Original [Blu-ray CEE] 5.1 640 kbps
Language                                 : English
Default                                  : No
Forced                                   : No

Text #1
ID                                       : 4
Format                                   : UTF-8
Codec ID                                 : S_TEXT/UTF8
Codec ID/Info                            : UTF-8 Plain Text
Title                                    : [SRT/UTF8] Full
Language                                 : Ukrainian
Default                                  : No
Forced                                   : No

Text #2
ID                                       : 5
Format                                   : UTF-8
Codec ID                                 : S_TEXT/UTF8
Codec ID/Info                            : UTF-8 Plain Text
Title                                    : [SRT/UTF8] Full
Language                                 : English
Default                                  : No
Forced                                   : No


Відео виконане у форматі 3D! Для перегляду потрібні спеціальні окуляри та стереоплеєр або телевізор з підтримкою технології 3D!

Інструкції щодо перегляду відео у форматі 3D




Джерело:

Особиста оцінка: 8 - рекомендую всім дітям та їх батькам


ЗАЛИШАЙТЕСЬ ЯКОМОГА ДОВШЕ НА РОЗДАЧІ!

СКАЧАВ САМ - ДАЙ СКАЧАТИ ІНШИМ


 Трекер:    Зареєстрований   

Завантажити / скачати мультфільм українською



відео для новачків



 Зареєстрований:   2015-01-11 17:48
 Розмір:   7.95 GB 
 Оцінка мультфільму:   4.7/10 (Голосів: 17)
   
Інші релізи
Ваш часовий пояс: GMT + 2 Години

Нова тема   Відповісти