Чарівний меч: У пошуках Камелота / The Magic Sword: Quest for Camelot (1998) 720p Ukr/Eng | Sub Eng

Нові коментарі

Нова тема   Відповісти
Автор Повідомлення
Anonymous 







2015-01-10 14:23  
Чарівний меч: У пошуках Камелота / The Magic Sword: Quest for Camelot (1998) 720p Ukr/Eng | Sub Eng



Жанр: анімація, мультфільм, мюзикл, фентезі, драма, комедія, пригодницький, сімейний
Країна: США

Золотий глобус 1999 рік - найкраща пісня "The Prayer" (Селін Діон / Celine Dion)

Кінокомпанія: Warner Bros.
Режисер: Фредерік Ду Чау / Frederik Du Chau
Ролі озвучили (в оригіналі): Джессалін Гілсіг / Jessalyn Gilsig, Андреа Корр / Andrea Corr, Карл Елвіс / Cary Elwes, Браян Вайт / Bryan White, Ґері Олдмен / Gary Oldman, Ерік Ідл / Eric Idle, Селін Діон / Céline Dion, Пірс Броснан / Pierce Brosnan та інші

Сюжет:
Все те ж царство Камелот, все той же король Артур, все той же легендарний меч Екскалібур, який викрадає злий лицар Рубер. Хоробра дівчина на ім'я Кейлі відправляється на пошуки меча, її веде сліпий юнак Гаррет.

Вони зустрічаються з прикольним створінням - двоголовим драконом на ім'я Девон і Корнуол. Під час їх чарівноїї та музичної подорожі Кейлі і Гаррет відкривають для себе нескінченну силу дружби і відваги.


Синопсис від Merdiff'а:
Лайонел, батько дівчинки Кайлі, загинув, захищаючи короля Артура від злого і жадібного лицаря Рубера, який волів заволодіти всіма землями, мечом Екскалібур і лицарським замком Камелот. Дівча виросло, мріючи стати лицарем, як її батько. Чарівний грифон (фантастичний монстр з тілом лева, крилами і головою орла) викрав меч короля Артура для Рубера, але випустив його над Заповітним лісом після нападу сокола з срібними крилами. Рубер захопив Джуліанну, мати Кайлі, щоб проникнути в Камелот. Джуліанна послала Кайлі попередити короля Артура, а хоробра дівчина попрямувала у Заповітний ліс, щоб знайти меч і повернути його королю. Там вона зустріла сліпого юнака, який раніше служив у Камелоті на конюшні, і, спасаючи її від пожежі, осліп. Разом вони шукають меч, знайомляться із кумедним двохголовим драконом і перемагають злого Рубера.


Рейтинг MPAA: G - нема вікових обмежень
Вікова категорія: 0+

Тривалість: 01:25:57
Якість: 720p (iTunes US)
Відео:
кодек:
розмір кадру: 1280x720
бітрейт: 4075 кбіт/с

Аудіо # 1:
мова: українська
переклад: двоголосий закадровий
ролі озвучили: Олена Узлюк та Юрій Коваленко
кодек: 2.0
бітрейт: 192 кбіт/с

Аудіо # 2:
мова: англійська
переклад: оригінал
кодек: 5.1
бітрейт: 384 кбіт/с

Субтитри:
мова: англійська
тип: програмні (м'які)
формат: *.srt
Info
Код:
General
Unique ID                   : 173600187871119703619606824325016398224 (0x829A2E159BD97B589DD10F5234D72990)
Complete name               : Quest for Camelot (1998) [Ukr,Eng sub.Eng] 720p [Hurtom & HDClub].
Format                      :
Format version              : Version 4 / Version 2
File size                   : 2.85 GiB
Duration                    : 1h 25mn
Overall bit rate            : 4 746 Kbps
Movie name                  : Чарівний меч: У пошуках Камелота / The Magic Sword: Quest for Camelot (1998) [Ukr,Eng sub.Eng] 720p [Hurtom & HDClub]
Encoded date                : UTC 2015-01-10 09:49:47
Writing application         : mkvmerge v7.5.0 ('Glass Culture') 64bit built on Jan  4 2015 16:48:44
Writing library             : libebml v1.3.1 + libmatroska v1.4.2
DURATION                    : 01:15:06.507000000
NUMBER_OF_FRAMES            : 1080
NUMBER_OF_BYTES             : 30445
_STATISTICS_WRITING_APP     : mkvmerge v7.5.0 ('Glass Culture') 64bit built on Jan  4 2015 16:48:44
_STATISTICS_WRITING_DATE_UT : 2015-01-10 09:49:47
_STATISTICS_TAGS            : BPS DURATION NUMBER_OF_FRAMES NUMBER_OF_BYTES

Video
ID                          : 1
Format                      : AVC
Format/Info                 : Advanced Video Codec
Format profile              : [email protected]
Format settings, CABAC      : No
Format settings, ReFrames   : 2 frames
Format settings, GOP        : N=1
Codec ID                    : V_MPEG4/ISO/AVC
Duration                    : 1h 25mn
Bit rate                    : 4 075 Kbps
Width                       : 1 280 pixels
Height                      : 720 pixels
Display aspect ratio        : 16:9
Frame rate mode             : Constant
Frame rate                  : 23.976 fps
Color space                 : YUV
Chroma subsampling          : 4:2:0
Bit depth                   : 8 bits
Scan type                   : Progressive
Bits/(Pixel*Frame)          : 0.184
Stream size                 : 2.45 GiB (86%)
Title                       : Чарівний меч: У пошуках Камелота / The Magic Sword: Quest for Camelot / Волшебный меч: Спасение Камелота (1998) 720p (iTunes US)
Language                    : English
Default                     : Yes
Forced                      : No
Color primaries             : BT.709
Transfer characteristics    : BT.709
Matrix coefficients         : BT.709
Color range                 : Limited

Audio #1
ID                          : 2
Format                      : AC-3
Format/Info                 : Audio Coding 3
Mode extension              : CM (complete main)
Format settings, Endianness : Big
Codec ID                    : A_AC3
Duration                    : 1h 25mn
Bit rate mode               : Constant
Bit rate                    : 192 Kbps
Channel(s)                  : 2 channels
Channel positions           : Front: L R
Sampling rate               : 48.0 KHz
Bit depth                   : 16 bits
Compression mode            : Lossy
Stream size                 : 118 MiB (4%)
Title                       : DVO [1+1] 2.0 192 kbps [Hurtom-romkomp/Merdiff]
Language                    : Ukrainian
Default                     : Yes
Forced                      : No

Audio #2
ID                          : 3
Format                      : AC-3
Format/Info                 : Audio Coding 3
Mode extension              : CM (complete main)
Format settings, Endianness : Big
Codec ID                    : A_AC3
Duration                    : 1h 25mn
Bit rate mode               : Constant
Bit rate                    : 384 Kbps
Channel(s)                  : 6 channels
Channel positions           : Front: L C R, Side: L R, LFE
Sampling rate               : 48.0 KHz
Bit depth                   : 16 bits
Compression mode            : Lossy
Stream size                 : 236 MiB (8%)
Title                       : Original 5.1 384 kbps
Language                    : English
Default                     : No
Forced                      : No

Text
ID                          : 4
Format                      : UTF-8
Codec ID                    : S_TEXT/UTF8
Codec ID/Info               : UTF-8 Plain Text
Title                       : Full
Language                    : English
Default                     : No
Forced                      : No

Menu
00:00:00.000                : en:The Camelot Saga
00:04:13.127                : en:"United We Stand"
00:06:34.602                : en:Ruber Rebels
00:08:06.944                : en:"On My Father's Wings"
00:12:37.047                : en:Griffin Attacks
00:13:50.746                : en:Excalibur Lost
00:14:54.935                : en:Where's the Glory?
00:16:48.298                : en:Invaded ("Ruber")
00:21:42.217                : en:"The Prayer"
00:24:55.410                : en:Forbidden Forest
00:26:00.350                : en:Rescued by Garrett
00:27:05.582                : en:"I Stand All Alone"
00:31:36.352                : en:Searchers
00:33:30.299                : en:Dragon Country
00:34:57.553                : en:Devon and Cornwall
00:36:33.274                : en:Fiery Attack
00:38:26.971                : en:"If I Didn't Have You"
00:42:17.660                : en:Join Us, Find Them
00:44:07.436                : en:Good as Any Knight
00:46:12.478                : en:Face to Face
00:48:06.049                : en:Close Call
00:50:04.251                : en:"Looking Through Your Eyes"
00:54:06.618                : en:The Ogre; a Clue
00:55:55.268                : en:Wake-Up Call
00:57:52.802                : en:Slip-Sliding Away
00:59:31.192                : en:Where He Belongs
01:01:26.808                : en:"I Stand All Alone" (Reprise)
01:02:21.612                : en:In the Wrong Hands
01:06:29.860                : en:Inside Camelot
01:07:38.054                : en:Under Siege
01:09:42.887                : en:Hayride to Castle
01:11:06.387                : en:The Griffin Burned
01:11:58.981                : en:No False King
01:12:50.866                : en:His Unlucky Day
01:14:52.738                : en:Just Knighted
01:16:48.562                : en:End Credits




Джерела та подяки: &
відео, оригінальні звук та субтитри - Steal (HDClub); українська доріжка - romkomp / Merdiff, українізований постер - Воїн; фільмографії акторів та інформація про озвучення - Віктор (всі - Гуртом).


ЗАЛИШАЙТЕСЬ ЯКОМОГА ДОВШЕ НА РОЗДАЧІ!

СКАЧАВ САМ - ДАЙ СКАЧАТИ ІНШИМ


Срібний реліз (на рейтинг впливає 50% завантаженого)
 Трекер:    Зареєстрований   

Завантажити / скачати мультфільм українською



відео для новачків



 Зареєстрований:   2015-01-10 14:45
 Розмір:   2.85 GB 
 Оцінка мультфільму:   5.2/10 (Голосів: 19)
   
Anonymous 







2015-01-11 00:46  
Також рекомендую чудовий саундрек до мультфільму - можна взяти тут
Ваш часовий пояс: GMT + 2 Години

Нова тема   Відповісти