Талановитий містер Ріплі / The Talented Mr. Ripley (1999) 1080p 3xUkr/Eng | Sub Eng

Нові коментарі

Нова тема   Відповісти
Автор Повідомлення
Anonymous 







2015-01-08 15:58  
Талановитий містер Ріплі / The Talented Mr. Ripley (1999) 1080p 3xUkr/Eng | Sub Eng

Оригінальні обкладинки:





Жанр: трилер, драма, кримінальний, музичний
Країна: США



Кінокомпанія: Miramax, Paramount Pictures, Mirage Enterprises, Timnick Films
Режисер: Ентоні Мінґелла / Anthony Minghella
Актори: Мет Деймон / Matt Damon, Джуд Лоу / Jude Law, Ґвінет Пелтроу / Gwyneth Paltrow, Філіп Сеймур Гофмен / Philip Seymour Hoffman, Кейт Бланшет / Cate Blanchett, Джек Девенпорт / Jack Davenport, Джеймс Ребгорн / James Rebhorn, Серджіо Рубіні / Sergio Rubini, Філіп Бейкер Голл / Philip Baker Hall, Селія Вестон / Celia Weston

Сюжет:
Том Ріплі знав, що рано чи пізно він проб'ється вгору. Одного разу, після випадкового знайомства, один з найбагатших людей Америки дає Тому доручення з'їздити до Італії і переконати його сина, що тринькає гроші в Європі, повернутися в Штати...

Незабаром Том вже знайомиться з Дікі Грінліфом і Мардж. Їх розкішне життя зачаровує Тома. А пізніше обставини складаються так, що він вирішує зайняти місце Дікі.


Рейтинг MPAA: R - особам до 17 років обов'язкова присутність батьків або дорослого опікуна
Вікова категорія: 16+

Тривалість: 02:19:06
Якість: 1080p
Відео:
кодек:
розмір кадру: 1920 х 1080
бітрейт: 18,1 Мб/с

Аудіо # 1:
мова: українська
переклад: професійний дубльований
кодек: 2.0
бітрейт: 192 кб/с

Аудіо # 2:
мова: українська
переклад: багатоголосий закадровий
кодек: 2.0
бітрейт: 192 кб/с

Аудіо # 3:
мова: українська
переклад: двоголосий закадровий
ролі озвучили: Олесь Гімбаржевський та Ірина Стасів
кодек: 2.0
бітрейт: 192 кб/с

Аудіо # 4:
мова: англійська
переклад: оригінал
кодек: AC 5.1
бітрейт: 640 кб/с

Аудіо # 5:
мова: англійська
переклад: коментар режисера Ентоні Мінґелла
кодек: 2.0
бітрейт: 224 кб/с

Субтитри:
мова: англійська (SDH)
тип: програмні (м'які)
формат: *.srt

Збережено оригінальні розділи, як на Blu-ray.
Info
Код:

Complete name               : The Talented Mr. Ripley (1999) [3xUkr,Eng sub.Eng] 1080p [Hurtom].
Format                      :
Format version              : Version 4
File size                   : 19.0 GiB
Duration                    : 2 h 19 min
Overall bit rate            : 19.5 Mb/s
Movie name                  : Талановитий містер Ріплі / The Talented Mr. Ripley (1999) [3xUkr,Eng sub.Eng] 1080p [Hurtom]
Encoded date                : UTC 2019-12-24 15:05:54
Writing application         : v41.0.0 ('Smarra') 64-bit
Writing library             : libebml v1.3.9 + v1.5.2
Cover                       : Yes
Attachments                 : cover.jpg

Video
ID                          : 1
Format                      : AVC
Format/Info                 : Advanced Video Codec
Format profile              : [email protected]
Format settings             : CABAC / 4 Ref Frames
Format settings, CABAC      : Yes
Format settings, Reference  : 4 frames
Codec ID                    : V_MPEG4/ISO/AVC
Duration                    : 2 h 19 min
Bit rate                    : 18.1 Mb/s
Width                       : 1 920 pixels
Height                      : 1 080 pixels
Display aspect ratio        : 16:9
Frame rate mode             : Constant
Frame rate                  : 23.976 (24000/1001) FPS
Color space                 : YUV
Chroma subsampling          : 4:2:0
Bit depth                   : 8 bits
Scan type                   : Progressive
Bits/(Pixel*Frame)          : 0.364
Stream size                 : 17.6 GiB (93%)
Title                       : Талановитий містер Ріплі / The Talented Mr. Ripley (1999) 1080p [FANDANGO]
Writing library             : core 130 r2273kMod b3065e6
Encoding settings           : cabac=1 / ref=4 / deblock=1:-3:-3 / analyse=0x3:0x113 / me=umh / subme=9 / psy=1 / fade_compensate=0.00 / psy_rd=1.20:0.00 / mixed_ref=1 / me_range=16 / chroma_me=1 / trellis=2 / 8x8dct=1 / cqm=0 / deadzone=21,11 / fast_pskip=0 / chroma_qp_offset=-2 / threads=6 / lookahead_threads=1 / sliced_threads=0 / nr=0 / decimate=0 / interlaced=0 / bluray_compat=0 / constrained_intra=0 / bframes=8 / b_pyramid=2 / b_adapt=2 / b_bias=0 / direct=3 / weightb=1 / open_gop=0 / weightp=2 / keyint=250 / keyint_min=23 / scenecut=40 / intra_refresh=0 / rc_lookahead=40 / rc=crf / mbtree=1 / crf=18.0000 / qcomp=0.60 / qpmin=0 / qpmax=69 / qpstep=4 / ip_ratio=1.40 / aq=1:0.60
Language                    : English
Default                     : Yes
Forced                      : No

Audio #1
ID                          : 2
Format                      : AC-3
Format/Info                 : Audio Coding 3
Commercial name             : Dolby Digital
Codec ID                    : A_AC3
Duration                    : 2 h 19 min
Bit rate mode               : Constant
Bit rate                    : 192 kb/s
Channel(s)                  : 2 channels
Channel layout              : L R
Sampling rate               : 48.0 kHz
Frame rate                  : 31.250 FPS (1536 SPF)
Compression mode            : Lossy
Stream size                 : 191 MiB (1%)
Title                       : Dub [NLO TV], 2.0 192 Kbps
Language                    : Ukrainian
Service kind                : Complete Main
Default                     : Yes
Forced                      : No

Audio #2
ID                          : 3
Format                      : AC-3
Format/Info                 : Audio Coding 3
Commercial name             : Dolby Digital
Codec ID                    : A_AC3
Duration                    : 2 h 19 min
Bit rate mode               : Constant
Bit rate                    : 192 kb/s
Channel(s)                  : 2 channels
Channel layout              : L R
Sampling rate               : 48.0 kHz
Frame rate                  : 31.250 FPS (1536 SPF)
Compression mode            : Lossy
Stream size                 : 191 MiB (1%)
Title                       : MVO [AMC], 2.0 192 Kbps
Language                    : Ukrainian
Service kind                : Complete Main
Default                     : No
Forced                      : No

Audio #3
ID                          : 4
Format                      : AC-3
Format/Info                 : Audio Coding 3
Commercial name             : Dolby Digital
Codec ID                    : A_AC3
Duration                    : 2 h 19 min
Bit rate mode               : Constant
Bit rate                    : 192 kb/s
Channel(s)                  : 2 channels
Channel layout              : L R
Sampling rate               : 48.0 kHz
Frame rate                  : 31.250 FPS (1536 SPF)
Compression mode            : Lossy
Stream size                 : 191 MiB (1%)
Title                       : DVO [1+1] 2.0 192 kbps [Hurtom-karvai0]
Language                    : Ukrainian
Service kind                : Complete Main
Default                     : No
Forced                      : No

Audio #4
ID                          : 5
Format                      : AC-3
Format/Info                 : Audio Coding 3
Commercial name             : Dolby Digital
Codec ID                    : A_AC3
Duration                    : 2 h 19 min
Bit rate mode               : Constant
Bit rate                    : 640 kb/s
Channel(s)                  : 6 channels
Channel layout              : L R C LFE Ls Rs
Sampling rate               : 48.0 kHz
Frame rate                  : 31.250 FPS (1536 SPF)
Compression mode            : Lossy
Stream size                 : 637 MiB (3%)
Title                       : Original 5.1 640 kbps
Language                    : English
Service kind                : Complete Main
Default                     : No
Forced                      : No

Audio #5
ID                          : 6
Format                      : AC-3
Format/Info                 : Audio Coding 3
Commercial name             : Dolby Digital
Codec ID                    : A_AC3
Duration                    : 2 h 19 min
Bit rate mode               : Constant
Bit rate                    : 224 kb/s
Channel(s)                  : 2 channels
Channel layout              : L R
Sampling rate               : 48.0 kHz
Frame rate                  : 31.250 FPS (1536 SPF)
Compression mode            : Lossy
Stream size                 : 223 MiB (1%)
Title                       : Commentary with Director Anthony Minghella
Language                    : English
Service kind                : Complete Main
Default                     : No
Forced                      : No

Text
ID                          : 7
Format                      : UTF-8
Codec ID                    : S_TEXT/UTF8
Codec ID/Info               : UTF-8 Plain Text
Duration                    : 2 h 17 min
Bit rate                    : 61 b/s
Count of elements           : 1828
Stream size                 : 61.7 KiB (0%)
Language                    : English
Default                     : No
Forced                      : No

Menu
00:00:00.000                : en:Borrowed Jacket
00:07:59.612                : en:Partners in Disguise
00:10:09.242                : en:Coincidence
00:14:21.160                : en:Three Talents of Tom Ripley
00:18:20.399                : en:"Bird"
00:22:19.972                : en:Double Agent
00:29:11.249                : en:Mysterious Mr. Ripley
00:32:46.097                : en:Sightseeing
00:37:39.390                : en:A Corduroy Jacket in Italy
00:43:09.387                : en:Festival of Madonna
00:47:52.570                : en:Confession
00:52:37.855                : en:San Remo
00:58:50.594                : en:Apology
01:03:44.554                : en:New Beginning
01:09:03.706                : en:Evening at the Opera
01:15:44.907                : en:Chance Meeting
01:19:51.020                : en:So Bourgeois
01:27:45.994                : en:Police Inquiry
01:29:51.653                : en:Tom's Return
01:38:17.759                : en:Dickie's Letter
01:40:28.122                : en:Friendship
01:48:16.290                : en:Suspicion
01:59:28.328                : en:Silent Promise
02:05:09.869                : en:A Fake Somebody, a Real Nobody
02:14:02.034                : en:End Credits




Джерела та подяки: &
Українські доріжки: Sando7, karvai0, OlegCena, slavik_v_z, Arsenfpu; постер: mrgalser; фільмографії акторів та інформація про озвучення - Віктор, Elisatella, Neo777 (всі - Гуртом).

24.12.2019 реліз оновлено: додано українські доріжки з НЛО TV та AMC, оригінальну доріжку замінено з на


Срібний реліз (на рейтинг впливає 50% завантаженого)
 Трекер:    Зареєстрований   

Завантажити / скачати фільм українською



відео для новачків



 Зареєстрований:   2019-12-24 17:19
 Розмір:   18.97 GB 
 Оцінка фільму:   5.4/10 (Голосів: 21)
 ЗАЛИШАЙТЕСЬ ЯКОМОГА ДОВШЕ НА РОЗДАЧІ! ЗАВАНТАЖИВ САМ - ДАЙ ЗАВАНТАЖИТИ ІНШИМ!
   
Anonymous 







2019-12-24 17:19  
Реліз оновлено: додано українські доріжки з НЛО TV та AMC, оригінальну доріжку замінено з на 
Ваш часовий пояс: GMT + 2 Години

Нова тема   Відповісти