Ла-ла-ла-ла (2015) 1080p

Нові коментарі

Нова тема   Відповісти
Автор Повідомлення
tarasyk98 
Поважний учасник


З нами з: 19.12.13
Востаннє: 16.10.17
Повідомлень: 201

2015-01-04 14:39  
Ла-ла-ла-ла (2015) 1080p

Ла-ла-ла-ла (2015) 1080p


Жанр: документальний, історичний
Країна: Україна

Телеканал / кіностудія: Ла-ла-ла-ла (2015) 1080p
Сюжет:
Від них двигтіли стадіони, вони трощили щелепи та ребра, вони змітали все на своєму шляху. Ультрас - воїни футбольних арен! Нічний жах українських ментів став ударною силою народної революції. Патріоти своєї держави, вони об'єдналися між собою задля єдиної мрії - Україна понад усе!

Цей фільм про фанатів, які вважають своїм обов'язком не тільки вболівати за улюблений клуб, а ще й захищати цілісність нашої держави.


Тривалість: 00:40:01
Якість: 1080p
Відео:
кодек:
розмір кадру: 1920х1080
бітрейт: 3156 кб/с

Аудіо:
мова: українська
переклад: оригінал
кодек: 2.0
бітрейт: 126 кб/с
Info
General
Complete name : D:\Відео\Ла-ла-ла-ла (2015) 1080p [Hurtom].mp4
Format : MPEG-4
Format profile : Base Media
Codec ID : isom
File size : 941 MiB
Duration : 40mn 1s
Overall bit rate : 3 288 Kbps
Writing application : Lavf55.33.100

Video
ID : 1
Format : AVC
Format/Info : Advanced Video Codec
Format profile : [email protected]
Format settings, CABAC : Yes
Format settings, ReFrames : 2 frames
Codec ID : avc1
Codec ID/Info : Advanced Video Coding
Duration : 40mn 1s
Duration_FirstFrame : -40ms
Bit rate : 3 156 Kbps
Width : 1 920 pixels
Height : 1 080 pixels
Display aspect ratio : 16:9
Frame rate mode : Variable
Frame rate : 25.000 fps
Minimum frame rate : 25.000 fps
Maximum frame rate : 25.014 fps
Color space : YUV
Chroma subsampling : 4:2:0
Bit depth : 8 bits
Scan type : Progressive
Bits/(Pixel*Frame) : 0.061
Stream size : 903 MiB (96%)

Audio
ID : 2
Format :
Format/Info : Advanced Audio Codec
Format profile : LC
Codec ID : 40
Duration : 40mn 1s
Bit rate mode : Constant
Bit rate : 126 Kbps
Channel(s) : 2 channels
Channel positions : Front: L R
Sampling rate : 44.1 KHz
Compression mode : Lossy
Stream size : 36.0 MiB (4%)
Скріншоти


Джерело:
Особиста оцінка: 10 - без зайвих вагань рекомендую всім!


Золотий реліз (завантажене не впливає на рейтинг)
 Трекер:    Зареєстрований   

Завантажити / скачати фільм українською



відео для новачків



 Зареєстрований:   2015-01-04 14:39
 Розмір:   941 MB 
 Оцінка фільму:   10/10 (Голосів: 22)
   
AngryBirdsUA 
Свій


З нами з: 24.02.10
Востаннє: 18.10.17
Повідомлень: 3037

2015-01-05 15:17  
tarasyk98
Додайте медіаінфо.

student1508 
Поважний учасник


З нами з: 27.02.10
Востаннє: 18.10.17
Повідомлень: 232

2015-01-05 15:51  
ПТН ПНХ!!!
Ваш часовий пояс: GMT + 2 Години

Нова тема   Відповісти