Ніко - шлях до зірок / Niko - Lentäjän poika / The Flight Before Christmas (2008) 720p Ukr/Eng | Sub Ukr/Eng

Нові коментарі

Нова тема   Відповісти
Автор Повідомлення
braveboy 
Відео Гуртом - команда HD
Відео Гуртом - команда HD


З нами з: 15.06.10
Востаннє: 13.08.17
Повідомлень: 949

2014-12-28 21:15  

Ніко - шлях до зірок / Niko - Lentäjän poika / The Flight Before Christmas (2008)
720p Ukr/Eng | Sub Ukr/Eng


Ніко - шлях до зірок / Niko - Lentäjän poika / The Flight Before Christmas (2008) 720p Ukr/Eng | Sub Ukr/Eng


Жанр: анімація, сімейний, пригодницький
Країна: Німеччина, Данія, Фінляндія, Ірландія




Кінокомпанія: Cinemaker Oy, Anima Vitae, A. Film
Режисер: Майкл Хегнер
Актори: Оллі Янтунен, Ханну-Пекка Бьоркман, Вуокко Ховатта, Ваги Вьерікко, Юссі Лампі, Рісто Каскілахті, Мінтту Мустакаліо, Юха Вейонен, Пунті Валтонен, Еліна Кніхтіля, Томмі Корпела, Аааре Карен, Артту Хямяляйнен, Емма Робертс, Барбара Шенебергер, Норм Макдональд

Сюжет:
Молодому північному оленеві на ім'я Ніко сниться, що його батько - один з літаючих оленів Санта Клауса. Незважаючи на страждання від серйозного запаморочення, він тікає з свого будинку, щоб узяти льотні уроки у його друга, незграбної білки-летяги Юлії. Незабаром після цього, Ніко і Юлія дізнаються, що Санта і його північний олень знаходяться в серйозній небезпеці. Вони збирають своїх лісових друзів і відправляються в похід на Північний полюс, щоб врятувати Санта Клауса і його батька.


Тривалість: 01:20:45
Якість: 720p
Відео:
кодек:
розмір кадру: 1280 x 692
бітрейт: 4657 кб/с

Аудіо # 1:
мова: українська
переклад: багатоголосий закадровий
кодек: 5.1
бітрейт: 384 кб/с

Аудіо # 2:
мова: англійська
переклад: оригінал
кодек: 5.1
бітрейт: 640 кб/с

Джерело озвучення:


Субтитри:
мова: українська
тип: програмні (м'які)
формат: *.srt

Субтитри:
мова: англійська
тип: програмні (м'які)
формат: *.srt

720p by braveboy
log

[info]: frame I:1271 Avg QP:13.38 size:141536
[info]: frame P:31801 Avg QP:14.72 size: 44393
[info]: frame B:83088 Avg QP:16.61 size: 14728
[info]: consecutive B-frames: 5.5% 4.7% 16.0% 30.8% 14.0% 26.4% 2.5%
[info]: mb I I16..4: 4.7% 67.8% 27.5%
[info]: mb P I16..4: 1.4% 13.2% 3.6% P16..4: 32.4% 16.6% 15.6% 1.2% 0.6% skip:15.3%
[info]: mb B I16..4: 0.2% 1.6% 0.6% B16..8: 27.5% 12.0% 4.2% direct: 4.7% skip:49.1% L0:40.2% L1:43.0% BI:16.8%
[info]: 8x8 transform intra:70.7% inter:53.1%
[info]: coded y,uvDC,uvAC intra: 83.6% 90.5% 80.2% inter: 25.5% 25.9% 14.7%
[info]: i16 v,h,dc,p: 28% 19% 7% 46%
[info]: i8 v,h,dc,ddl,ddr,vr,hd,vl,hu: 12% 13% 10% 8% 11% 10% 12% 10% 14%
[info]: i4 v,h,dc,ddl,ddr,vr,hd,vl,hu: 22% 10% 6% 7% 13% 11% 12% 8% 11%
[info]: i8c dc,h,v,p: 44% 24% 17% 15%
[info]: Weighted P-Frames: Y:7.4% UV:4.9%
[info]: ref P L0: 59.2% 8.6% 14.0% 5.8% 3.8% 3.5% 2.5% 2.0% 0.5% 0.0%
[info]: ref B L0: 77.1% 10.5% 5.3% 2.8% 2.1% 1.4% 0.8%
[info]: ref B L1: 92.1% 7.9%
[info]: kb/s:4648.88
Info
Video
ID : 1
Format : AVC
Format/Info : Advanced Video Codec
Format profile : [email protected]
Format settings, CABAC : Yes
Format settings, ReFrames : 8 frames
Codec ID : V_MPEG4/ISO/AVC
Duration : 1h 20mn
Bit rate : 4 657 Kbps
Width : 1 280 pixels
Height : 692 pixels
Display aspect ratio : 1.85:1
Frame rate mode : Constant
Frame rate : 23.976 fps
Color space : YUV
Chroma subsampling : 4:2:0
Bit depth : 8 bits
Scan type : Progressive
Bits/(Pixel*Frame) : 0.219
Stream size : 2.56 GiB (80%)
Title : Niko & The Way to the Stars (2008) 720p by braveboy
Writing library : core 142 r2479 dd79a61
Encoding settings : cabac=1 / ref=8 / deblock=1:-3:-3 / analyse=0x3:0x133 / me=umh / subme=9 / psy=1 / psy_rd=0.80:0.00 / mixed_ref=1 / me_range=32 / chroma_me=1 / trellis=1 / 8x8dct=1 / cqm=0 / deadzone=21,11 / fast_pskip=0 / chroma_qp_offset=-2 / threads=3 / lookahead_threads=1 / sliced_threads=0 / nr=0 / decimate=0 / interlaced=0 / bluray_compat=0 / constrained_intra=0 / bframes=6 / b_pyramid=2 / b_adapt=2 / b_bias=0 / direct=1 / weightb=1 / open_gop=0 / weightp=2 / keyint=240 / keyint_min=24 / scenecut=40 / intra_refresh=0 / rc=2pass / mbtree=0 / bitrate=4657 / ratetol=1.0 / qcomp=0.60 / qpmin=10 / qpmax=51 / qpstep=4 / cplxblur=20.0 / qblur=0.5 / ip_ratio=1.40 / pb_ratio=1.30 / aq=1:1.00
Default : Yes
Forced : No

Audio #1
ID : 2
Format : AC-3
Format/Info : Audio Coding 3
Mode extension : CM (complete main)
Format settings, Endianness : Big
Codec ID : A_AC3
Duration : 1h 20mn
Bit rate mode : Constant
Bit rate : 384 Kbps
Channel(s) : 6 channels
Channel positions : Front: L C R, Side: L R, LFE
Sampling rate : 48.0 KHz
Bit depth : 16 bits
Compression mode : Lossy
Stream size : 222 MiB (7%)
Title : 5.1 @ 384 kbps [TET]
Language : Ukrainian
Default : Yes
Forced : No

Audio #2
ID : 3
Format : AC-3
Format/Info : Audio Coding 3
Mode extension : CM (complete main)
Format settings, Endianness : Big
Codec ID : A_AC3
Duration : 1h 20mn
Bit rate mode : Constant
Bit rate : 640 Kbps
Channel(s) : 6 channels
Channel positions : Front: L C R, Side: L R, LFE
Sampling rate : 48.0 KHz
Bit depth : 16 bits
Compression mode : Lossy
Stream size : 370 MiB (11%)
Title : 5.1 @ 640 kbps
Language : English
Default : No
Forced : No

Text #1
ID : 4
Format : UTF-8
Codec ID : S_TEXT/UTF8
Codec ID/Info : UTF-8 Plain Text
Title : Full
Language : Ukrainian
Default : No
Forced : No

Text #2
ID : 5
Format : UTF-8
Codec ID : S_TEXT/UTF8
Codec ID/Info : UTF-8 Plain Text
Title : Full
Language : English
Default : No
Forced : No

Menu
00:00:00.000 : en:00:00:00.000
00:05:30.163 : en:00:05:30.163
00:11:18.887 : en:00:11:18.887
00:18:21.642 : en:00:18:21.642
00:25:01.125 : en:00:25:01.125
00:30:52.184 : en:00:30:52.184
00:39:27.699 : en:00:39:27.699
00:47:17.209 : en:00:47:17.209
00:55:39.086 : en:00:55:39.086
01:02:30.997 : en:01:02:30.997
01:07:35.134 : en:01:07:35.134
01:15:43.247 : en:01:15:43.247
Скріншоти





 Трекер:    Зареєстрований   

Завантажити / скачати мультфільм українською



відео для новачків



 Зареєстрований:   2014-12-28 21:19
 Розмір:   3.2 GB 
 Оцінка мультфільму:   10/10 (Голосів: 9)
   
igor911 
Відео Гуртом
Відео Гуртом


З нами з: 18.01.08
Востаннє: 18.08.17
Повідомлень: 7276

2014-12-28 21:56  
braveboy, зміни, будь ласка назву на "Ніко - шлях до зірок / Niko - Lentäjän poika / The Flight Before Christmas (2008) 720p Ukr/Eng | Sub Ukr/Eng"
braveboy 
Відео Гуртом - команда HD
Відео Гуртом - команда HD


З нами з: 15.06.10
Востаннє: 13.08.17
Повідомлень: 949

2014-12-28 22:00  
igor911
змінив

Ваш часовий пояс: GMT + 2 Години

Нова тема   Відповісти