DZIDZIO - Ангели чудяться (2014) 720p

Нові коментарі

Нова тема   Відповісти
Останній раз роздавалося borisalexj (2017-08-18)
Автор Повідомлення
-_-B_E_N_D_E_R-_- 
Оцифрування книг Гуртом
Оцифрування книг Гуртом


З нами з: 09.01.14
Востаннє: 18.08.17
Повідомлень: 162

2014-12-26 15:02  
DZIDZIO - Ангели чудяться (2014) 720p

DZIDZIO - Ангели чудяться (2014) 720p


Жанр: комедія, пригодницький
Країна: Україна

Опис:
Коротке веселе відео


Тривалість: 00:13:05
Якість:
Відео:
кодек:
розмір кадру: 1280 х 720
бітрейт: 2 109 кб/с

Аудіо:
мова: українська
переклад: оригінал
кодек: 2.0
бітрейт: 203 кб/с
Скріншоти
Info
General
Complete name : D:\DZIDZIO - Ангели чудяться.mp4
Format : MPEG-4
Format profile : Base Media / Version 2
Codec ID : mp42
File size : 111 MiB
Duration : 13mn 5s
Overall bit rate mode : Variable
Overall bit rate : 1 184 Kbps
Encoded date : UTC 2014-12-24 10:34:04
Tagged date : UTC 2014-12-24 10:34:04
gsst : 0
gstd : 785066
gssd : BD4713484HH1419593957805145
gshh : r1---sn-03guxaxjvh-3c2d.googlevideo.com

Video
ID : 1
Format : AVC
Format/Info : Advanced Video Codec
Format profile : [email protected]
Format settings, CABAC : Yes
Format settings, ReFrames : 1 frame
Codec ID : avc1
Codec ID/Info : Advanced Video Coding
Duration : 13mn 5s
Bit rate : 990 Kbps
Maximum bit rate : 2 109 Kbps
Width : 1 280 pixels
Height : 720 pixels
Display aspect ratio : 16:9
Frame rate mode : Constant
Frame rate : 25.000 fps
Color space : YUV
Chroma subsampling : 4:2:0
Bit depth : 8 bits
Scan type : Progressive
Bits/(Pixel*Frame) : 0.043
Stream size : 92.6 MiB (84%)
Tagged date : UTC 2014-12-24 10:34:08

Audio
ID : 2
Format :
Format/Info : Advanced Audio Codec
Format profile : LC
Codec ID : 40
Duration : 13mn 5s
Bit rate mode : Variable
Bit rate : 192 Kbps
Maximum bit rate : 203 Kbps
Channel(s) : 2 channels
Channel positions : Front: L R
Sampling rate : 44.1 KHz
Compression mode : Lossy
Stream size : 18.0 MiB (16%)
Title : IsoMedia File Produced by Google, 5-11-2011
Encoded date : UTC 2014-12-24 10:34:06
Tagged date : UTC 2014-12-24 10:34:08
Джерело: &
Особиста оцінка: 10 - без зайвих вагань рекомендую всім!


 Трекер:    Зареєстрований   

Завантажити / скачати передачу українською



відео для новачків



 Зареєстрований:   2014-12-26 15:02
 Розмір:   111 MB 
 Оцінка передачі:   8.8/10 (Голосів: 22)
   
Ваш часовий пояс: GMT + 2 Години

Нова тема   Відповісти